<?xml version="1.0" standalone="no"?>
<!DOCTYPE svg PUBLIC "-//W3C//DTD SVG 1.1//EN" "http://www.w3.org/Graphics/SVG/1.1/DTD/svg11.dtd" >
<svg xmlns="http://www.w3.org/2000/svg" xmlns:xlink="http://www.w3.org/1999/xlink" version="1.1">
<metadata>
Created by FontForge 20201107 at Sun Feb 18 04:03:35 2018
 By Jimmy Wärting
Copyright \(c\) 2018 by Solidtype. All rights reserved.
</metadata>
<defs>
<font id="StayClassySLDT" horiz-adv-x="421" >
  <font-face 
    font-family="Stay Classy SLDT"
    font-weight="400"
    font-stretch="normal"
    units-per-em="2048"
    panose-1="2 0 5 3 2 0 0 2 0 2"
    ascent="1638"
    descent="-410"
    x-height="568"
    cap-height="1741"
    bbox="-619 -1696 2291 2371"
    underline-thickness="102"
    underline-position="-256"
    stemh="74"
    stemv="54"
    unicode-range="U+0020-FB00"
  />
<missing-glyph horiz-adv-x="362" 
 />
    <glyph glyph-name="l_h" unicode="lh" horiz-adv-x="668" 
d="M503 1737l-9 -10c-99 -169 -143 -559 -161 -760c-23 -265 -32 -518 -39 -780c1 0 1 -2 3 -2c22 88 51 182 84 267c25 67 73 192 135 192c54 0 63 -90 63 -132c0 -59 -3 -121 -9 -180l-4 -38c-6 -60 -8 -131 -9 -195c0 -53 2 -129 37 -172c2 -4 5 -8 5 -10
c0 -4 0 -8 -6 -8c-1 0 -4 1 -7 2l-4 4h1c-55 41 -57 155 -57 239c0 114 12 222 12 337c0 15 -2 29 -2 49v7c0 3 1 6 1 10c0 9 -2 20 -16 34c-83 -4 -173 -421 -234 -627c-3 -16 -16 -19 -22 -19h-5c-18 7 -23 24 -23 34c6 305 20 698 41 998c17 182 40 387 78 554
c19 84 66 244 151 244c7 0 11 -2 17 -11c-4 -8 -8 -15 -15 -21l-6 -7v1zM295 1682l-11 -12l-8 -11v1c-153 -281 -201 -1055 -201 -1558c0 -117 2 -220 7 -298c8 -126 19 -274 63 -397l35 -69c-24 2 -44 36 -51 49c-2 2 -4 4 -4 5c-52 102 -74 289 -85 406l-6 102
c0 82 -9 166 -9 266c0 506 66 1544 258 1544c6 -1 22 -6 22 -16c-5 -8 -7 -10 -10 -13v1z" />
    <glyph glyph-name="f_b" unicode="fb" horiz-adv-x="847" 
d="M382 -130h-1c-4 7 -6 13 -6 21l1 92c8 370 19 796 39 1164c10 143 23 306 46 444c12 72 42 197 102 197c6 0 12 0 12 -7c0 -4 -5 -10 -10 -15l-11 -14l1 1l-8 -29c-54 -184 -66 -393 -79 -586c-20 -308 -29 -620 -37 -929c0 -20 -2 -51 -2 -71c1 0 3 -1 4 -1
c41 162 157 590 285 611c58 -2 81 -74 81 -173c0 -221 -106 -548 -350 -599l-7 -24l-16 -73c-4 -13 -11 -23 -28 -23c-7 2 -12 6 -16 14zM367 1603l-23 -26c-134 -179 -177 -548 -198 -795c47 14 113 36 161 36c15 0 28 -4 28 -19c0 -26 -132 -53 -193 -74
c-17 -209 -23 -432 -23 -647c0 -178 6 -348 15 -518l3 -60c8 -91 16 -185 30 -275l27 -108c-60 41 -87 305 -95 379c-22 216 -29 421 -29 634c0 194 5 384 17 574c-44 -18 -86 -39 -116 -63c-7 0 -15 8 -16 17l1 -1c-3 6 -3 11 -3 15c0 39 90 74 138 91
c20 255 90 899 296 899c11 0 18 -4 21 -13c-2 -13 -12 -20 -22 -29v1zM747 613c-1 17 -6 65 -20 79c-121 -30 -242 -548 -269 -684c191 60 287 363 289 605z" />
    <glyph glyph-name="d_t" unicode="dt" horiz-adv-x="708" 
d="M30 387c36 110 112 289 225 289c16 0 33 -6 46 -14l11 -13c16 169 33 322 60 481c-116 -8 -236 -20 -340 -34c-4 -1 -12 -1 -16 -1c-18 0 -36 6 -42 19c2 24 29 35 51 40c112 14 233 24 358 32c32 186 97 521 202 524c7 -1 21 -4 23 -15c-4 -8 -6 -10 -11 -14v1l-13 -15
v1c-1 -3 -4 -6 -7 -7c-74 -132 -108 -311 -140 -472c48 3 104 7 153 9c1 7 4 15 5 22c22 121 52 287 91 376l9 16c8 14 14 24 26 39l2 3c5 5 18 15 35 15c0 -23 -44 -114 -44 -172c-29 -103 -50 -199 -67 -296c104 5 210 7 312 10l214 5c19 0 111 4 206 4
c104 0 212 -3 226 -18c-35 -25 -421 -34 -435 -34l-181 -7c-113 -4 -233 -9 -352 -15c-74 -440 -115 -973 -117 -1429c1 -150 6 -291 21 -439v1c13 -94 36 -238 105 -259c2 0 10 -2 13 -4l-2 -8h-6c-2 -1 -6 -2 -8 -2c-82 0 -122 164 -138 262c-23 144 -31 293 -31 442
c0 299 27 922 108 1434l-154 -10c-64 -369 -100 -777 -100 -1161c0 -57 0 -113 2 -169c0 -124 5 -271 50 -395c1 -5 5 -15 11 -25h-2l24 -45c-24 0 -44 40 -54 54c-49 100 -65 290 -72 405c-4 70 -5 146 -5 216c0 82 2 160 5 241l-3 2c-31 -105 -87 -273 -193 -273
c-82 0 -98 103 -98 178c0 77 15 151 37 225zM46 124v-1c4 -34 12 -79 46 -79c40 0 90 75 117 128c17 39 57 166 86 252c3 54 7 117 13 172l-22 4c-3 3 -26 3 -32 6c-85 -2 -144 -152 -174 -238c-18 -66 -35 -142 -35 -212c0 -11 0 -21 1 -32z" />
    <glyph glyph-name="z_z" unicode="zz" horiz-adv-x="784" 
d="M-220 -1231l3 -6c-14 47 -18 86 -18 133c0 318 184 729 411 871c-35 106 -88 197 -167 253c-10 7 -15 19 -15 33c0 11 5 22 11 27l40 33c51 42 107 93 154 143c35 37 73 89 76 152c0 69 -30 91 -70 91c-71 0 -130 -37 -171 -105h1c-3 -7 -9 -14 -12 -21
c-4 -7 -3 -29 -31 -60c-7 7 -10 15 -10 25c0 141 120 230 222 230c63 0 127 -47 127 -153c0 -144 -111 -238 -220 -328l-41 -34c71 -66 123 -163 156 -260c47 22 94 35 143 35c13 0 27 -3 42 -10h-2c3 -2 12 -15 11 -15c-23 0 -27 6 -36 6c-2 0 -3 -1 -8 -1h-7
c-43 -6 -92 -26 -135 -47l12 -47c21 -102 32 -208 32 -299c0 -68 -4 -135 -12 -206c-32 -214 -133 -567 -340 -567c-65 0 -120 45 -146 127zM722 442c-18 -156 -152 -291 -262 -391c67 -62 120 -152 150 -243c36 24 75 39 112 39c15 0 27 -4 44 -8v1c11 -4 41 -15 51 -27
l-6 -7s-8 2 -13 3l-13 3c-24 5 -40 11 -48 10c-39 0 -83 -21 -117 -48c36 -116 49 -266 49 -358c0 -68 -4 -137 -13 -207c-20 -141 -92 -430 -228 -430h-11c-88 20 -102 164 -102 234c0 258 101 602 251 756c-34 104 -90 197 -170 254c-7 6 -11 17 -11 29c0 10 6 20 12 26
l20 20c59 54 118 109 171 176c36 46 74 103 77 173c0 71 -34 91 -70 91c-49 0 -88 -28 -120 -66c-24 -28 -89 -153 -90 -160c-13 15 -13 21 -13 31c0 52 48 153 66 181c39 51 93 81 156 83c69 -1 128 -50 128 -165zM-189 -1104c5 -99 29 -194 114 -194h13c3 0 3 1 5 1
c154 31 243 338 272 518c7 62 11 125 11 182c0 93 -6 207 -36 314l-4 13c-208 -148 -375 -542 -375 -834zM400 -673v4c-22 -104 -39 -207 -39 -318c0 -47 6 -163 61 -175c106 7 166 269 183 382c8 66 12 132 12 192c0 91 -11 189 -31 285l-6 24v12
c-90 -119 -145 -257 -180 -406z" />
    <glyph glyph-name="d_b" unicode="db" horiz-adv-x="928" 
d="M477 1376c-94 -408 -149 -972 -149 -1430v-57c0 -21 -1 -43 -1 -66c0 -129 6 -280 54 -416c4 -25 28 -45 28 -71c-16 4 -35 32 -44 48l-5 6c-50 102 -66 292 -73 407c-4 70 -5 146 -5 216c0 82 2 160 5 241l-3 2c-34 -113 -90 -273 -193 -273c-80 0 -98 99 -98 173
c0 78 16 158 37 231c36 109 114 288 223 288c23 0 36 -8 49 -15l10 -11c23 240 109 1060 272 1060c8 -1 21 -3 23 -15l-15 -19c-40 -25 -101 -243 -115 -299zM486 -174h-6c-8 4 -20 22 -20 36c12 430 51 838 120 1253c25 151 56 314 99 452c19 64 68 180 122 180
c4 0 10 -2 15 -5c0 -15 -16 -21 -16 -26c-158 -248 -258 -1243 -278 -1579c2 0 2 -1 3 -1c39 155 153 552 278 582c51 -2 65 -83 69 -133c0 -205 -76 -496 -224 -578c-66 -29 -100 -44 -115 -48l-24 -110c-2 -11 -12 -23 -23 -23zM635 31c127 89 198 328 198 513
c0 13 0 26 -1 39c-1 17 -7 65 -21 79c-121 -25 -245 -561 -271 -671l14 5c33 12 73 30 81 35zM295 423l13 165c-26 13 -42 16 -51 17l-9 1c-114 -12 -203 -315 -203 -462c0 -40 7 -100 52 -100c39 0 90 81 112 127c18 38 57 166 86 252z" />
    <glyph glyph-name="l_b" unicode="lb" horiz-adv-x="626" 
d="M391 1617c18 61 63 180 123 180c4 0 11 -3 16 -5l-15 -20v1l-27 -46h2c-153 -384 -230 -1105 -257 -1540c1 0 1 -1 2 -1c41 159 151 559 280 582c51 -3 65 -82 68 -133c0 -206 -79 -492 -229 -577c-61 -32 -92 -46 -110 -52c-4 -22 -10 -44 -14 -66l-8 -40
c-3 -10 -10 -23 -24 -23c-12 0 -28 16 -28 35c14 430 52 838 120 1253c28 154 58 313 101 452zM312 1676c-2 -1 -11 -14 -13 -18c-185 -320 -249 -1277 -249 -1750v-55c0 -17 0 -34 1 -49l4 -88c5 -115 21 -258 58 -334l22 -45c-22 5 -37 29 -46 44v-1c-5 6 -7 9 -8 11
c-51 103 -65 292 -72 407c-3 57 -5 122 -5 192c0 505 75 1298 211 1626c17 37 53 93 92 94c6 -1 20 -4 22 -16c0 0 -7 -9 -8 -10zM342 87l1 1c129 90 200 323 200 510c0 6 -1 12 -1 18v18c0 17 -6 64 -20 78c-116 -22 -239 -546 -268 -665c0 -2 -1 -7 -2 -9
c36 18 88 46 90 49z" />
    <glyph glyph-name="b_b" unicode="bb" horiz-adv-x="996" 
d="M364 329l1 3c20 83 24 150 24 227c0 33 -6 84 -25 103c-130 -19 -269 -674 -299 -812c-3 -12 -13 -23 -28 -23c-11 3 -16 7 -18 14l1 -1c-5 6 -7 18 -7 23c15 401 15 848 41 1255c8 124 21 279 40 404c12 79 42 237 110 237c4 0 6 0 11 -4c-3 -7 -7 -12 -10 -16l-8 -10v1
c-25 -39 -33 -123 -42 -164c-61 -412 -74 -868 -82 -1301l-4 -149c1 0 1 -2 4 -2c41 166 91 342 162 487c28 48 73 117 124 121c73 0 74 -143 74 -200c0 -26 -1 -53 -3 -79l-9 -52c52 57 98 120 131 188c14 307 22 618 74 913c12 69 45 197 103 197c4 0 11 -3 15 -6l-19 -24
v1l-3 -7c-4 -5 -10 -24 -10 -29c-53 -187 -68 -390 -82 -585c-23 -333 -35 -665 -45 -999c1 0 1 -2 3 -2c41 163 158 587 290 611c48 -2 65 -75 67 -133c0 -208 -83 -500 -235 -587c-5 0 -69 -28 -104 -30l-27 -121c-9 -17 -18 -21 -25 -21c-15 0 -24 12 -27 34l8 250
c5 159 7 304 14 461l-2 -2c-38 -72 -84 -115 -136 -172c-28 -121 -106 -315 -217 -315h-6c-26 0 -52 20 -52 55c0 51 49 94 81 122c49 43 100 91 147 140v-1zM881 595c-111 -29 -238 -543 -268 -668l39 11c155 55 254 344 254 544c0 6 -1 12 -1 17v15c0 15 -8 78 -24 81z
M239 152l-4 -3v1c-18 -18 -51 -50 -60 -82c3 -2 8 -4 10 -4c72 0 125 99 154 177l-5 5c-34 -36 -67 -68 -95 -94z" />
    <glyph glyph-name="b_m" unicode="bm" horiz-adv-x="1279" 
d="M923 427v-10l-19 -201c-1 -14 -1 -32 -1 -60c13 15 21 28 28 38l41 82l25 54c1 4 5 10 6 14c31 69 87 193 146 193c2 0 3 -1 4 -1h5c32 -9 39 -54 39 -87c0 -21 -4 -45 -4 -66h2l-16 -136c-12 -78 -21 -157 -21 -235c0 -14 0 -29 1 -44l4 -44c5 -34 17 -65 46 -89
c-7 -6 -9 -6 -13 -6c-19 0 -48 53 -56 89c-9 38 -13 76 -13 116c0 59 6 121 11 179l16 175c1 13 2 30 2 47c0 12 -1 20 -3 30l-2 20c-54 -32 -95 -138 -129 -221l-17 -35c-27 -63 -60 -140 -108 -140c-43 0 -43 63 -43 99c0 43 6 87 10 130l11 120c3 34 3 72 4 111
c0 17 0 38 -2 56l-10 36c-33 -9 -72 -91 -85 -121c-30 -72 -61 -160 -87 -242c-42 -135 -87 -323 -140 -448c-5 -11 -14 -19 -26 -19c-22 0 -27 25 -27 31c0 179 13 360 27 540l7 72c-40 -57 -75 -74 -130 -123c-31 -115 -106 -282 -211 -282c-30 0 -53 16 -56 48
c0 54 47 101 80 127l56 45l85 68c22 85 32 157 32 255c0 35 -6 85 -26 105c-128 -19 -267 -663 -299 -812c-1 -11 -11 -23 -29 -23c-15 5 -22 21 -23 36l1 104c8 374 17 778 40 1151c8 128 20 282 40 409c13 87 45 232 109 232c5 0 7 0 13 -5l-11 -14l1 1l-22 -45v1
c-51 -191 -65 -387 -76 -588c-22 -331 -31 -661 -39 -994c2 0 2 -2 4 -2c42 164 89 344 163 488c26 50 71 115 121 121c69 -2 78 -138 78 -190c0 -54 -5 -104 -20 -183c53 44 108 96 136 155c5 10 9 22 18 26c13 -6 19 -43 19 -79c0 -47 -4 -98 -5 -110
c-10 -113 -17 -227 -23 -341c1 0 3 -1 4 -1l38 130c36 138 77 263 133 388c30 66 69 152 138 152c51 -14 55 -102 55 -152c0 -41 -4 -83 -7 -125zM240 187c-19 -17 -56 -53 -64 -86c9 -3 11 -3 15 -3c63 0 117 99 150 176l-28 -21z" />
    <glyph glyph-name="m_m" unicode="cc" horiz-adv-x="1602" 
d="M1201 623l-4 2c-52 -11 -151 -278 -166 -332l-23 -80l-33 -113c-32 -109 -76 -276 -116 -275c-19 7 -23 27 -23 36c2 174 14 355 29 527c-1 0 -3 1 -4 1c-34 -136 -81 -300 -89 -321v1c-16 -51 -66 -190 -114 -190l-6 1c-21 4 -34 24 -40 47l-5 43c-1 11 -1 27 -1 38
c4 70 11 145 22 214l10 61c10 59 19 120 19 177c0 10 0 20 -3 35c-49 -38 -75 -112 -101 -171l-17 -34h1l-17 -35c-29 -67 -69 -153 -115 -153c-42 0 -43 62 -43 93c0 120 24 232 24 364c0 30 -2 60 -5 85v-1l-5 11c-35 -10 -70 -88 -86 -120c-26 -60 -53 -133 -74 -203
l-12 -39l-57 -196c-31 -107 -75 -271 -115 -271c-14 5 -22 19 -22 36c1 164 12 328 24 490c0 23 20 228 46 228c11 0 19 -38 19 -83c0 -64 -8 -142 -8 -154h-1c-8 -97 -14 -192 -20 -289c1 0 1 -2 4 -2c12 42 27 87 39 129c16 47 26 94 40 136c34 106 111 353 195 397
c12 6 21 6 36 6c52 -15 55 -96 55 -147c0 -47 -8 -96 -8 -140l-17 -217c0 -8 -1 -18 -1 -31v-13c30 36 50 77 68 120l15 36l21 45c34 74 81 180 152 182c29 -9 34 -53 34 -83c0 -17 -2 -34 -2 -49c0 -64 -25 -145 -29 -211l-4 -26c-9 -61 -20 -126 -20 -190
c0 -23 -1 -52 9 -66c27 14 62 110 79 149v-1l36 117c43 140 116 364 123 364l-5 -3c4 13 9 23 22 25c10 -9 13 -43 13 -78c0 -47 -3 -101 -4 -113c-9 -113 -18 -226 -23 -340c1 0 3 -1 4 -1l37 130c25 63 124 511 264 511c59 -10 60 -107 60 -152s-10 -91 -10 -136l-2 -33
c-1 -21 -3 -40 -5 -59v1l-6 -81c-1 -13 -3 -38 -2 -49c0 -3 0 -7 1 -12c28 35 41 64 57 94l32 62c39 76 101 197 154 197c44 -4 48 -62 48 -95c0 -154 -37 -254 -37 -415c0 -44 5 -121 46 -158l11 -7l-3 -8c-75 17 -83 142 -83 220c0 27 0 55 2 81l10 111
c6 51 11 106 11 183c0 10 -1 21 -4 36c-20 -6 -37 -34 -45 -47c-24 -38 -43 -78 -63 -117l-13 -25h1l-16 -31c-36 -78 -72 -145 -122 -145c-32 4 -35 55 -35 86c0 58 9 106 9 146l5 71c0 35 6 80 6 122v12c0 31 1 71 -11 82h2z" />
    <glyph glyph-name="n_n" unicode="nn" horiz-adv-x="899" 
d="M298 644c37 -7 51 -55 51 -101c0 -55 -8 -111 -17 -164l-8 -47c-1 -12 -4 -27 -5 -38l-7 -39c-9 -50 -17 -108 -18 -157c0 -34 -1 -70 13 -72c44 29 92 174 110 227l100 398c5 23 12 58 35 58c18 -5 21 -49 21 -71c0 -4 -1 -8 -1 -11l-1 -25c-5 -116 -20 -231 -23 -344
c1 0 1 -1 2 -1l22 69c7 24 12 47 21 68v-1c24 75 80 249 161 249h6c60 -13 69 -91 69 -148c0 -61 -9 -122 -14 -183l-3 -35c0 -3 -1 -9 -1 -12c-5 -52 -13 -110 -13 -162c0 -21 -1 -51 7 -76v-5s14 -30 13 -28l13 -22c-64 23 -64 133 -64 171c0 53 4 107 9 163
c0 2 -2 4 -2 6c0 56 11 126 11 186c0 29 -3 82 -29 86c-42 -1 -92 -144 -111 -205c-2 -1 -2 -2 -3 -2c-34 -106 -68 -244 -103 -335c-3 -11 -14 -19 -25 -19c-16 0 -28 13 -28 35c2 104 8 208 13 312l4 56c-1 0 -4 1 -5 1c-27 -126 -57 -254 -109 -371l-3 -6
c-19 -33 -44 -79 -78 -79c-25 0 -43 15 -52 42v-1c-10 25 -11 46 -11 71c0 71 11 155 24 225l5 27c0 4 2 9 2 13c11 62 22 129 22 190c0 4 0 39 -2 39c-47 0 -105 -170 -120 -222l-29 -98c-25 -86 -48 -180 -77 -247c-6 -13 -9 -19 -25 -19h-8c-12 3 -21 18 -21 35
c0 190 16 606 61 610c19 0 22 -36 22 -70c0 -33 -4 -66 -4 -75l-6 -88c-4 -59 -9 -113 -11 -171c1 0 1 -2 3 -2l14 45c11 36 18 73 30 104v-1c31 92 93 267 169 267h4z" />
    <glyph glyph-name="j_a" unicode="ja" horiz-adv-x="682" 
d="M360 77v-1c-7 -6 -6 -7 -7 -9l-31 -40c-12 -12 -25 -23 -42 -23c-46 0 -60 64 -60 111c0 120 64 292 122 377l-5 6c-102 -79 -183 -190 -256 -304c-15 -420 -88 -1686 -375 -1686c-116 9 -153 187 -153 311c17 493 231 995 472 1364c1 76 0 377 34 377
c27 0 28 -170 28 -202l-5 -89c80 106 226 277 333 291h10c21 0 38 -5 58 -29l2 -6c6 -10 14 -26 14 -36c0 -2 0 -3 -4 -11c-7 0 -15 5 -24 10l-1 1c-8 2 -18 5 -23 5c-93 -12 -182 -280 -182 -389l2 -30l-1 2c3 -7 8 -7 10 -7c28 0 129 178 143 204l56 103h-1l22 41
c28 53 54 105 89 156l-1 -1c3 8 11 9 14 9c17 0 22 -19 22 -34c0 -1 -1 -4 -1 -6c-24 -124 -40 -271 -40 -398c0 -23 2 -47 2 -70c0 -37 2 -100 34 -125l19 -15c-74 0 -84 133 -84 207v57c0 61 5 129 11 195l4 43c-1 0 -2 1 -3 1c-35 -67 -75 -140 -109 -206
c-1 0 -3 -3 -3 -4c-31 -55 -62 -109 -90 -150zM21 86l-6 2c-206 -349 -393 -819 -410 -1272v-6c0 -2 -1 -4 -1 -7c0 -67 22 -222 103 -231c241 31 304 1264 314 1514zM59 848c2 33 12 82 26 113c26 -8 23 -26 46 -26c-17 -38 -26 -63 -30 -87l-3 -18c0 -19 -13 -44 -27 -44
c-13 0 -14 23 -14 39c0 9 1 18 2 23z" />
    <glyph glyph-name="f_f" unicode="ff" horiz-adv-x="572" 
d="M317 -533c-7 109 -9 233 -9 350c0 307 21 635 65 949c-74 -13 -156 -29 -229 -45c-48 -325 -71 -660 -71 -990v-34c0 -57 3 -113 3 -169v-20c0 -88 7 -218 33 -300c3 -8 12 -26 13 -30c-60 26 -80 290 -84 348c-7 104 -8 216 -8 323c0 271 20 578 57 858l-2 -1
c-54 -14 -67 -17 -106 -35h-4c-26 0 -30 21 -30 31c0 25 77 49 128 60l23 5c34 226 131 704 339 734h7c52 0 95 -32 101 -105c44 73 108 143 179 143c70 0 115 -71 122 -152c-1 -11 0 -24 -1 -37c-3 -22 -22 -116 -47 -118c-4 6 -6 34 -6 59c0 10 0 25 1 35c0 2 -1 4 -1 6v4
c0 3 1 6 1 9v7c-2 43 -11 116 -74 118c-162 -26 -252 -474 -280 -644l53 6c10 0 66 6 120 6c50 0 96 -6 100 -21c-23 -23 -168 -22 -211 -33l-71 -11c-55 -354 -78 -724 -78 -1086v-45c0 -95 5 -189 9 -282l2 -47c3 -74 8 -155 34 -202l-7 -5c-53 37 -67 293 -71 361z
M444 1432c-172 0 -262 -472 -293 -652c73 15 157 29 231 39c29 181 69 390 145 547l-20 29c-16 24 -39 36 -63 37z" />
    <glyph glyph-name="e_e" unicode="ee" horiz-adv-x="804" 
d="M407 163l-3 10l-2 12v-1c-5 18 -9 35 -9 55c0 21 0 43 3 66c-2 1 -2 0 -4 2c-64 -104 -184 -235 -290 -245c-76 3 -108 75 -113 176c1 167 100 402 243 420c42 -2 105 -19 105 -106c0 -101 -113 -177 -182 -211c-17 -9 -65 -23 -97 -23c-6 0 -7 0 -13 1
c-4 -28 -7 -52 -8 -80c4 -73 17 -116 62 -118c107 0 227 148 285 240l-1 -1l21 40c54 110 122 244 233 258c48 -2 97 -28 104 -95c-8 -165 -182 -236 -293 -255c0 -25 -7 -35 -7 -54c0 -104 47 -128 100 -131c42 0 74 9 110 30c19 11 83 62 89 73l9 -3
c-1 -33 -71 -96 -78 -102c-41 -28 -87 -48 -134 -48c-54 0 -106 25 -130 90zM675 582c-11 8 -25 10 -35 10c-82 -10 -152 -142 -183 -243c96 32 229 137 229 204c0 11 -3 22 -11 29zM282 559c0 28 -34 32 -47 33c-81 -10 -148 -131 -179 -232c99 27 222 108 226 199z" />
    <glyph glyph-name="o_o" unicode="oo" horiz-adv-x="834" 
d="M230 642c91 -6 119 -109 122 -226c43 22 92 45 135 67h-2c6 5 11 8 17 8h8c5 -8 5 -11 5 -14c-2 -22 -12 -66 -22 -87l-7 -15c-18 -56 -28 -122 -28 -183c0 -33 8 -176 74 -180c98 14 161 190 180 294c7 38 10 82 10 123c0 34 -11 147 -65 160
c-85 -3 -110 -119 -110 -205v-17l6 -44c4 -33 8 -76 15 -81l-6 -8c-21 6 -41 120 -43 132c-2 19 -3 36 -3 54c0 114 46 218 138 218c89 -5 113 -134 113 -225c0 -105 -52 -443 -227 -462c-103 3 -134 161 -134 254c0 69 11 152 34 210c-1 0 -2 -2 -3 -2
c-35 -25 -66 -32 -86 -42c-10 -159 -84 -404 -227 -420c-101 2 -133 154 -133 247c0 60 10 130 24 188c11 26 44 105 74 105l9 -4c10 83 66 155 132 155zM234 344c-59 0 -116 26 -133 100c-13 -25 -31 -69 -31 -72l-4 -15c-14 -52 -23 -99 -24 -154c0 -10 1 -187 75 -191
c111 12 169 222 184 342c-23 -6 -47 -10 -67 -10zM301 395l5 4c-1 57 -10 178 -74 189c-49 -3 -93 -56 -93 -119c0 -70 69 -81 104 -81c19 0 40 3 58 7z" />
    <glyph glyph-name="t_t" unicode="tt" horiz-adv-x="515" 
d="M271 1713l-11 -33l-5 -9l1 1c-46 -144 -69 -321 -90 -483c66 5 144 9 211 12c14 95 30 198 48 284c13 63 48 169 101 169c-2 -12 -13 -40 -13 -40c-14 -41 -23 -84 -31 -129l-3 -10v1c-17 -77 -31 -169 -44 -255l-3 -17c282 13 578 20 860 20c38 0 73 -4 73 -20
c0 -15 -12 -25 -23 -26c-61 -11 -150 -32 -191 -52v1l-20 -9c-10 -5 -19 -8 -21 -8c-8 0 -8 6 -8 10c0 17 50 41 58 44c0 0 4 1 6 2c0 2 -1 6 -1 9l-209 -7c-168 -8 -354 -10 -531 -19c-71 -508 -110 -1062 -110 -1568c0 -75 1 -150 5 -225v-7c2 -48 13 -326 102 -332
c0 -4 -15 -13 -16 -13c-77 0 -103 176 -113 250c-20 149 -25 308 -25 460c7 443 43 999 101 1431c-68 -4 -145 -7 -211 -12c-64 -488 -106 -991 -106 -1480v-55c0 -55 0 -110 5 -165l6 -76c8 -80 28 -221 87 -236h9l3 -8c-12 -6 -16 -6 -20 -6c-78 0 -105 163 -114 241
c-19 152 -21 302 -21 456c6 420 41 906 95 1325c-102 -9 -207 -19 -301 -31c-7 -1 -17 -2 -24 -2c-20 0 -42 5 -49 18c0 57 252 58 382 70c15 122 37 246 58 358c11 58 38 171 103 171z" />
    <glyph glyph-name="p_p" unicode="pp" horiz-adv-x="1096" 
d="M683 -25v-1c-39 -267 -58 -523 -79 -788l-18 -222c-2 -17 -13 -29 -29 -29c-13 0 -21 12 -25 23l-2 13c10 294 24 589 39 884l7 172l23 449c1 7 2 42 4 62c-44 -71 -90 -96 -131 -132l-2 -1c-38 -135 -137 -277 -251 -305c-3 -1 -11 -1 -13 -1c-20 0 -37 9 -43 32l1 -1
c-3 5 -5 9 -5 13c3 92 111 155 162 192l101 73c15 52 25 104 25 162c0 50 -5 127 -55 129c-163 -31 -247 -494 -272 -661c-38 -247 -55 -482 -74 -727l-16 -206c-5 -17 -16 -28 -32 -28c-12 3 -23 16 -23 36c6 281 18 564 32 846l5 117l17 369c0 27 6 173 38 176
c18 -10 22 -63 22 -110c0 -30 -4 -57 -4 -69c0 -1 1 -2 1 -4l-18 -363c1 0 3 -1 5 -1c33 198 118 651 312 683c79 -3 108 -82 108 -189c0 -36 -3 -68 -12 -115c45 38 88 75 114 115l3 9l14 22c2 5 5 4 5 16l4 1c4 3 9 5 15 5c18 -5 23 -50 23 -87c0 -26 -2 -48 -3 -63
l-24 -468c2 0 4 -1 5 -1c28 196 115 731 304 768c78 -3 119 -55 119 -183c-11 -211 -121 -467 -309 -480h-47l-6 -32c-7 -35 -12 -68 -15 -100zM957 719c-145 0 -221 -426 -249 -585c11 1 28 1 41 1c171 36 269 251 272 454c0 52 -3 130 -64 130zM327 292
c-18 -14 -34 -25 -62 -50c-21 -20 -54 -53 -66 -95h12c74 22 149 111 186 190c-2 2 -2 4 -4 6z" />
    <glyph glyph-name="g_g" unicode="gg" horiz-adv-x="1111" 
d="M396 652c7 17 16 20 26 20c12 0 29 -16 29 -40c-17 -159 -26 -320 -38 -480l-9 -118l-19 -257c31 23 58 39 87 53c15 7 67 26 99 30l3 -10c-98 -36 -124 -59 -182 -109h1l-10 -8c-27 -352 -60 -713 -150 -1040c-32 -116 -98 -305 -214 -314c-85 5 -129 96 -129 219
c0 372 222 898 439 1127c6 103 14 205 22 308l10 134c6 88 11 179 20 266c-3 1 -4 1 -6 3c-52 -124 -195 -453 -322 -453c-77 0 -78 140 -78 149c0 106 23 201 73 285c47 79 127 161 243 161c25 0 49 -5 70 -16c4 10 9 20 12 30zM971 672c10 0 20 -7 26 -18h1
c2 -5 3 -11 3 -17v-6c-19 -195 -35 -392 -47 -590l-6 -96c31 24 61 43 89 56l2 1h-1c0 2 63 22 99 25l3 -9l-33 -13c-81 -32 -116 -58 -162 -103c-26 -357 -59 -737 -153 -1068c-34 -112 -103 -276 -213 -288c-98 3 -124 123 -131 219c11 353 224 894 443 1130l14 220
c4 64 10 129 15 194l10 123l-6 4c-54 -128 -197 -437 -322 -453c-62 6 -80 92 -80 155c0 48 7 98 17 144c21 104 76 271 173 271c40 0 92 -63 92 -124c0 -4 0 -7 -6 -19l-11 20c-22 39 -43 66 -72 67c-64 -17 -110 -168 -123 -235c-8 -40 -13 -80 -13 -122
c0 -12 -3 -84 23 -88c114 20 306 485 345 602c5 14 18 18 24 18zM494 -1236v-1c4 -65 11 -159 81 -159c19 0 32 7 45 17c181 136 245 932 267 1221c-202 -253 -393 -740 -393 -1078zM-52 -1498c12 -39 33 -62 68 -64c203 33 289 990 310 1234
c-201 -251 -390 -734 -390 -1070c0 -35 3 -68 12 -100zM62 50c70 1 213 306 290 490c-17 5 -31 8 -44 8c-150 0 -273 -207 -273 -405c0 -53 7 -93 27 -93z" />
    <glyph glyph-name="l_l" unicode="ll" horiz-adv-x="689" 
d="M671 1793c22 47 57 123 110 124c75 -6 96 -86 96 -180v-18c-19 -303 -180 -803 -283 -1055l-8 -14h1c-18 -45 -80 -193 -119 -225c-8 -105 -13 -211 -13 -315c0 -60 2 -119 5 -177c6 -108 23 -372 142 -451c15 -10 52 -7 80 -25c-17 -3 -23 -3 -34 -3
c-139 0 -188 198 -210 330c-25 146 -25 301 -25 445c-2 0 -2 1 -3 1c-41 -167 -158 -576 -283 -595c-56 1 -92 98 -105 160c-11 52 -18 115 -18 165l-2 38c-1 13 -1 31 -1 44v44c0 327 42 690 86 1001c24 169 57 356 102 514c24 86 79 241 165 242c74 -8 96 -93 96 -172
c0 -272 -166 -742 -261 -976c-11 -27 -79 -188 -125 -255c-10 -115 -17 -234 -17 -354v-43c0 -14 0 -29 1 -43l4 -62c3 -44 4 -87 14 -130c4 -33 21 -121 58 -121c74 0 173 289 204 379l92 335v-1c23 422 101 1043 251 1393zM782 1851h-1c-21 0 -54 -66 -64 -90
c-128 -308 -213 -889 -242 -1230c1 -1 2 -1 4 -1l39 104v-1l15 42c6 8 7 13 8 19c112 273 260 726 282 1029v9c0 4 1 9 1 13c0 43 -9 104 -42 106zM77 586l5 -2l54 144c96 257 248 660 261 931c-6 38 5 113 -45 117c-148 -25 -257 -1009 -275 -1190z" />
    <glyph glyph-name="s_s" unicode="ss" horiz-adv-x="901" 
d="M854 304l2 1c21 12 56 34 78 34c7 0 11 -4 11 -7c-9 -15 -45 -35 -73 -52l-38 -23c-85 -57 -130 -99 -199 -184c1 -4 3 -7 4 -10c44 -127 93 -276 93 -434c0 -174 -65 -437 -248 -437c-100 0 -154 82 -165 227c1 232 141 495 265 646l-4 12v-1c-25 67 -53 154 -76 245
c-221 -269 -267 -346 -311 -400c33 -130 67 -295 67 -451c0 -182 -51 -458 -249 -458c-135 0 -163 155 -168 241c0 258 160 490 291 664l-36 142c-32 116 -65 244 -70 365l-3 73c7 125 56 265 171 265h9c62 -10 103 -89 103 -168c0 -17 -1 -37 -4 -49c-13 6 -14 12 -15 21
c-10 66 -33 133 -88 137c-83 -7 -115 -113 -119 -208c0 -155 38 -303 79 -457l16 -65l319 390l-3 20c-5 30 -9 63 -8 95c0 108 45 269 147 272c58 -4 72 -53 72 -97c0 -89 -72 -178 -131 -247l-30 -35c15 -71 49 -177 78 -261c74 81 140 139 225 189h-1l4 4zM381 -682
c22 -52 58 -81 102 -83c157 0 202 256 202 386c0 153 -40 271 -88 406c-109 -143 -237 -386 -237 -595c0 -43 4 -75 21 -114zM-105 -744c6 -88 40 -191 116 -201c154 17 194 254 194 406c0 130 -27 279 -55 401c-117 -158 -255 -380 -255 -606zM538 495v-78l6 9
c60 77 112 142 112 225c0 20 -8 37 -25 37c-68 0 -92 -125 -93 -193z" />
    <glyph glyph-name="r_r" unicode="rr" horiz-adv-x="853" 
d="M466 549c2 26 7 95 30 104c25 -14 26 -80 26 -114c0 -90 -6 -180 -10 -270c1 0 1 -1 2 -1c36 116 140 440 254 440c58 0 87 -78 87 -141c0 -17 -4 -34 -12 -37c-5 8 -6 15 -7 22l-7 41c-6 32 -25 64 -52 66c-124 -17 -253 -558 -280 -685c-2 -12 -9 -23 -23 -25
c-19 0 -31 25 -32 45l10 208c5 113 11 234 14 347zM14 -22l-1 3l-3 14c0 2 -1 5 -1 7l21 495c1 24 7 84 28 91c21 -9 27 -65 27 -92c0 -63 -4 -130 -8 -195l-3 -53c1 0 1 -2 3 -2c35 110 134 392 242 392h9c49 -10 76 -64 76 -127c0 -12 -2 -24 -7 -30c-11 3 -12 13 -13 25
l-6 31c-6 31 -27 56 -50 59c-113 -14 -237 -477 -267 -610c-2 -11 -9 -20 -23 -23c-9 0 -19 6 -24 15z" />
    <glyph glyph-name="a_l" unicode="al" horiz-adv-x="754" 
d="M378 541l-7 -34l-7 -28c-30 -121 -63 -272 -64 -405c0 -21 4 -45 19 -53h7c74 30 168 361 190 454v-1c21 307 147 1294 323 1434c9 5 17 10 30 10c67 0 94 -70 99 -146v-51c-16 -289 -183 -797 -286 -1061c0 -2 -2 -4 -6 -9l2 1c-19 -45 -81 -193 -119 -225
c-8 -107 -13 -215 -13 -322c0 -56 2 -112 5 -167c4 -95 10 -471 211 -471l1 -10c-5 -1 -14 -1 -24 -1c-139 0 -189 200 -211 330c-20 120 -24 243 -24 365c0 54 1 105 3 160l-3 2c-29 -103 -104 -346 -181 -346c-52 0 -60 84 -60 138c0 96 19 197 38 289l-3 2
c-57 -107 -113 -217 -180 -318c-17 -26 -52 -69 -80 -73c-47 0 -59 64 -59 111c0 161 112 444 207 444c26 0 70 -34 70 -81c-8 2 -19 6 -26 12l-1 1c-10 5 -19 7 -24 7c-95 -19 -183 -287 -183 -395c0 -31 8 -32 11 -32c25 0 121 164 143 204h-1l58 109
c35 66 75 135 109 195c3 4 7 6 10 7c8 0 12 -3 18 -6l2 -7l-1 2c2 -5 7 -13 7 -13v-22zM809 1763c-134 -306 -213 -886 -243 -1231c3 -1 3 -1 4 -1c20 58 44 119 55 145l7 17h-1c114 276 263 727 283 1032v47c-2 36 -10 81 -42 81c-22 0 -54 -69 -63 -90z" />
    <glyph glyph-name="e_l" unicode="el" horiz-adv-x="724" 
d="M232 658h1c40 -2 104 -21 104 -104c0 -106 -113 -179 -183 -213c-17 -9 -66 -22 -97 -22c-4 0 -9 0 -13 2c-4 -30 -7 -54 -7 -82c0 -71 17 -115 61 -118c98 0 206 124 263 206v-1l86 155c28 381 117 988 246 1312c19 47 59 123 110 124c74 -6 96 -84 96 -180
c0 -7 0 -13 -1 -19v1c-20 -304 -182 -808 -285 -1061l-7 -14c-20 -47 -78 -188 -118 -219c-7 -107 -13 -215 -13 -322c0 -56 2 -112 6 -167c5 -121 23 -471 210 -471l1 -10c-6 -1 -14 -1 -23 -1c-142 0 -188 198 -210 330c-21 125 -24 253 -24 380c0 80 2 158 6 237
c-1 0 -2 1 -3 1c-63 -147 -200 -325 -337 -340c-73 3 -113 80 -113 177c0 168 98 400 244 419zM845 1723v30c0 34 -7 98 -43 98c-21 0 -53 -68 -63 -90c-134 -308 -213 -886 -243 -1231l5 -1l39 105v-1l17 44c3 8 5 12 5 16c114 276 264 726 283 1030zM234 592
c-81 -14 -157 -148 -184 -237c68 3 232 135 232 201c0 31 -34 35 -48 36z" />
    <glyph glyph-name="e_k" unicode="ek" horiz-adv-x="923" 
d="M855 673l-38 -30c-107 -76 -198 -291 -253 -445c46 -51 107 -92 161 -92c21 0 42 4 60 11l-3 -5c0 2 56 38 69 38c5 -8 5 -10 5 -11c0 -21 -36 -53 -50 -65c-27 -17 -54 -26 -81 -29c-64 0 -129 33 -185 84c-28 -96 -57 -198 -69 -293c-2 -11 -12 -24 -20 -24
c-24 0 -30 28 -30 73c0 136 4 271 9 411l-3 1c-46 -116 -176 -271 -285 -271h-10c-103 0 -135 99 -143 212c1 167 100 402 243 420c43 -2 105 -21 105 -106c0 -101 -111 -176 -182 -211c-13 -7 -91 -28 -110 -27c-5 -28 -7 -50 -8 -75c10 -119 51 -153 107 -155
c109 14 218 145 263 250l26 61c15 343 34 723 87 1056c10 67 48 229 107 249c4 0 11 -5 11 -8c0 -4 -2 -8 -4 -11l-9 -25c-23 -63 -38 -137 -50 -200l-4 -26c-31 -182 -48 -372 -61 -560c-19 -261 -31 -530 -37 -797c1 0 1 -1 3 -1c64 214 202 562 374 608l-1 2
c5 3 8 5 11 5c2 0 3 -1 4 -4c1 0 2 1 4 1l-4 -5c0 -6 -4 -6 -9 -6zM282 559c0 28 -34 32 -47 33c-82 -11 -154 -144 -183 -245c69 22 230 144 230 212z" />
    <glyph glyph-name="i_l" unicode="il" horiz-adv-x="501" 
d="M327 427l-4 -4c-6 -100 -12 -209 -12 -309c0 -59 3 -119 6 -178c6 -109 17 -377 142 -454c15 -10 53 -8 80 -25c-17 -3 -23 -3 -34 -3c-142 0 -188 197 -211 330c-19 125 -25 249 -25 370c0 50 2 97 4 148c-1 0 -4 1 -5 1c-24 -88 -89 -293 -177 -293
c-73 8 -78 144 -78 215c0 91 20 380 58 380c21 0 31 -20 31 -36c0 -7 -1 -11 -2 -18c-19 -105 -34 -220 -34 -337c0 -14 2 -32 2 -46v-4c0 -22 -1 -68 22 -90c43 24 90 124 107 162v-1l37 107c16 47 34 101 49 135v-2c25 388 109 980 245 1318c22 47 58 123 110 124
c75 -6 96 -86 96 -180v-18c-18 -303 -182 -807 -286 -1061v1l-7 -16c-20 -47 -79 -184 -114 -216zM638 1851c-22 0 -54 -68 -64 -90c-134 -309 -213 -887 -243 -1232c1 -1 2 -2 3 -2c149 289 347 1014 347 1218c0 39 -5 103 -43 106zM111 961l5 -1c11 -2 36 -23 36 -32
c-17 -33 -25 -136 -53 -142c-15 8 -15 41 -15 57c0 30 14 86 25 116z" />
    <glyph glyph-name="i_t" unicode="it" horiz-adv-x="469" 
d="M279 326l-4 2c-25 -94 -95 -319 -185 -319c-75 8 -78 147 -78 214c0 93 19 381 58 381c24 0 31 -22 31 -41c0 -2 -1 -4 -1 -6v-7c-21 -107 -34 -217 -34 -335v-24c0 -8 1 -16 1 -24v-5c0 -22 0 -64 21 -89c43 25 90 121 106 158v-1c6 20 15 41 22 61l26 78
c18 54 37 110 48 132c16 212 38 436 64 644c-190 -11 -394 -26 -566 -49c-5 -1 -12 -1 -16 -1c-18 0 -37 6 -44 19c0 23 29 37 53 40c174 23 378 36 581 45c14 100 33 210 49 301c15 65 48 169 102 169l-9 -32l-8 -17l1 1c-2 -10 -6 -20 -9 -30l-19 -89
c-20 -93 -37 -202 -51 -301c175 8 353 11 508 15c21 0 115 4 208 4c103 0 211 -3 227 -17c-34 -23 -378 -34 -437 -35l-514 -21c-69 -497 -109 -1035 -109 -1534c0 -116 0 -232 14 -347v-1c8 -76 26 -201 70 -240l11 -4c2 -1 -1 1 15 -6l-2 -8l-11 -2c-3 -1 -3 -1 -5 -1
c-75 0 -105 180 -115 251c-21 151 -23 307 -23 463c2 205 12 405 24 608zM135 948c1 -1 16 -11 21 -11c-27 -59 -32 -146 -58 -152c-12 6 -16 30 -16 47c0 33 14 92 29 128c8 -2 17 -5 21 -9z" />
    <glyph glyph-name="e_t" unicode="et" horiz-adv-x="654" 
d="M232 658c24 -1 47 -5 67 -21l2 1c22 -20 36 -52 36 -86c0 -105 -111 -178 -182 -211c-18 -8 -47 -15 -75 -22l-36 -9c-4 -22 -7 -51 -7 -65v-6c10 -119 51 -153 107 -155c98 12 196 122 247 213h-2l58 129v-2c16 236 38 489 70 721c-191 -11 -396 -26 -569 -49
c-3 -1 -10 -1 -15 -1c-18 0 -38 6 -43 19c0 23 29 37 53 40c174 23 379 36 581 45c13 103 31 207 50 301c13 65 49 169 100 169c0 -17 -12 -33 -12 -40c-41 -128 -63 -278 -82 -428c175 7 353 11 508 15c21 0 114 4 208 4c102 0 212 -4 225 -16c-15 -25 -375 -35 -435 -36
l-513 -21c-70 -504 -109 -1053 -109 -1558c0 -77 2 -154 6 -231c2 -32 11 -323 94 -340c5 0 9 -1 9 -6c0 -1 -10 -8 -19 -8c-74 0 -103 179 -114 251c-15 155 -22 306 -22 463c0 204 10 406 23 609l-3 2c-47 -140 -162 -283 -286 -302c-2 0 -5 -1 -6 -1h-14
c-88 0 -139 82 -143 212c1 167 100 402 243 420zM282 559c0 28 -34 32 -47 33c-82 -11 -154 -143 -183 -244c92 33 230 140 230 207v4z" />
    <glyph glyph-name="u_l" unicode="ul" horiz-adv-x="1019" 
d="M413 69c37 0 105 161 125 207l11 34c8 25 26 73 41 108l20 55v-2c17 202 126 1417 346 1446c74 -6 97 -85 97 -171c0 -285 -169 -798 -266 -1042l-11 -19h1c-20 -49 -77 -189 -120 -245l-7 -81c-6 -71 -10 -148 -11 -223v-58c0 -91 1 -186 19 -272c7 -33 21 -120 59 -120
c68 0 177 236 215 318c5 12 27 69 51 137l47 123l56 160l11 -2c-7 -82 -121 -399 -136 -436c-58 -137 -149 -343 -243 -350c-53 0 -90 95 -103 159c-20 98 -22 207 -22 310c0 68 1 137 5 205c-1 0 -1 1 -2 1c-36 -101 -108 -296 -175 -296c-79 15 -81 167 -81 218v38
c0 13 0 25 1 35c-1 0 -2 1 -3 2c-11 -35 -26 -74 -39 -108l-13 -35c-31 -70 -88 -197 -161 -197l-11 1c-90 21 -105 148 -105 239c0 29 1 62 4 91c7 64 30 289 74 289c2 0 19 -3 19 -36c0 -25 -6 -53 -9 -77l-3 -24c0 -4 -3 -11 -3 -14c-15 -79 -26 -169 -26 -258
c0 -13 0 -26 1 -39v-11c0 -25 5 -86 36 -95c55 2 107 121 135 176c28 75 54 150 81 228l55 163c5 10 8 12 11 15h10c15 -4 28 -19 32 -36v-12c-24 -121 -39 -253 -39 -382c0 -41 2 -117 26 -117zM670 587l4 -2c10 28 23 57 32 80l13 34v-1l13 31c94 232 248 714 267 994v18
c0 37 -2 107 -43 110c-7 0 -17 -6 -22 -10c-144 -144 -239 -1010 -264 -1254z" />
    <glyph glyph-name="u_t" unicode="ut" horiz-adv-x="839" 
d="M374 605l10 11h10c19 -5 32 -24 32 -48c-24 -121 -39 -253 -39 -382c0 -41 2 -117 26 -117c36 0 108 163 125 207v-1c2 8 6 16 9 24l14 41c12 35 30 85 44 120v-2c16 226 38 467 66 687c-190 -11 -394 -26 -568 -49c-4 -1 -12 -1 -15 -1c-19 0 -37 6 -44 19
c2 23 31 37 53 40c174 23 380 36 582 45c14 100 33 210 50 301c12 65 51 169 103 169l-15 -40c-1 -5 -2 -8 -4 -13l-7 -25c-30 -124 -52 -270 -70 -390c174 7 352 11 507 15c21 0 114 4 208 4c103 0 211 -3 225 -18c-30 -23 -375 -33 -434 -34l-514 -21
c-71 -507 -109 -1051 -109 -1558c0 -77 1 -154 6 -231l6 -94v1c9 -75 27 -201 71 -240l13 -5c4 -1 21 -9 21 -9c-12 -4 -22 -7 -29 -7c-73 0 -101 183 -111 251c-22 152 -23 307 -23 463c0 195 11 389 22 582c-1 0 -4 2 -5 2c-33 -98 -104 -287 -169 -287
c-79 15 -81 167 -81 218v38c0 13 0 25 1 35c-1 0 -2 1 -3 2c-11 -35 -26 -74 -39 -108l-13 -35c-31 -71 -88 -197 -162 -197l-10 1c-89 19 -105 146 -105 239c0 29 1 62 4 91c7 64 30 289 74 289c2 0 19 -3 19 -36c0 -25 -6 -53 -9 -77l-3 -24c0 -4 -3 -11 -3 -14
c-15 -79 -26 -169 -26 -258c0 -13 0 -26 1 -39v-7c1 -25 4 -89 36 -99c55 2 107 121 135 176c50 128 93 263 137 395z" />
    <glyph glyph-name="u_m" unicode="um" horiz-adv-x="1362" 
d="M1240 398l-1 3c0 17 3 36 3 52c0 18 0 19 -6 46c-38 -10 -73 -92 -99 -152l-13 -30l-32 -69c-27 -59 -63 -145 -115 -144c-31 0 -38 49 -38 79c0 136 26 259 26 413c0 21 -4 42 -13 58c-62 -16 -152 -303 -171 -361c-41 -127 -94 -334 -138 -442c-11 -26 -24 -26 -28 -26
h-7c-7 5 -13 8 -16 15h1c-6 8 -7 13 -7 21c1 164 11 323 24 484c-1 0 -3 1 -4 2c-25 -79 -110 -329 -185 -332c-79 15 -81 167 -81 218c0 8 1 16 1 24v51c-1 0 -2 1 -3 1c-33 -101 -114 -341 -214 -341l-10 1c-89 19 -105 146 -105 239c0 29 1 62 4 91c7 64 30 289 74 289
c2 0 19 -3 19 -36c0 -25 -6 -53 -9 -77l-3 -24c0 -4 -3 -11 -3 -14c-15 -79 -26 -169 -26 -258c0 -13 0 -26 1 -39v-7c1 -25 4 -89 36 -99c51 2 99 103 128 162c1 4 5 10 7 14c51 129 94 264 138 397l9 9h10c17 -4 32 -25 32 -48c-23 -119 -39 -250 -39 -377
c0 -39 2 -122 24 -122c16 0 42 37 53 56c150 263 148 454 198 454c9 -11 13 -43 13 -76c0 -37 -4 -80 -4 -102v-12c-10 -113 -19 -225 -24 -339c1 0 1 -2 3 -2l79 268l11 32c24 70 51 149 82 218c24 56 75 153 130 153c61 0 63 -99 63 -147c0 -47 -3 -96 -7 -140l-19 -203
c0 -3 1 -7 1 -10c-1 -9 -2 -30 -2 -39c0 -3 1 -6 1 -11c32 39 49 78 68 118c2 5 8 16 9 20l28 61c33 72 87 183 141 183h6c35 -8 42 -51 42 -89c0 -22 -2 -47 -4 -68c-12 -133 -36 -257 -36 -389c0 -46 3 -119 47 -152l2 -12c-5 0 -11 0 -13 2h2c-57 28 -68 129 -68 196
c0 123 19 242 27 359z" />
    <glyph glyph-name="a_n" unicode="an" horiz-adv-x="905" 
d="M35 70c29 0 126 176 142 203c27 47 53 97 79 146h-1c29 54 57 107 87 156h-1c2 5 9 9 13 10c16 0 27 -22 27 -36c0 -2 -1 -4 -1 -5l-10 -50c-34 -133 -72 -266 -72 -397v-5c0 -16 1 -66 22 -66c77 0 145 290 187 395l-1 -1c10 58 26 153 54 160c15 -6 23 -29 23 -51v-36
c-4 -81 -10 -161 -15 -241c1 0 3 -1 4 -1c40 149 103 391 206 391c57 -11 70 -85 70 -142c0 -47 -6 -99 -11 -149l-8 -72c0 -55 -12 -120 -13 -177v-10c-1 -37 1 -61 23 -104l8 -16c-59 21 -63 122 -63 168c0 55 5 107 9 162c-1 2 -1 3 -1 7c0 55 11 124 11 186
c0 28 -3 88 -30 88c-44 0 -102 -188 -117 -235c-14 -40 -26 -86 -38 -132c-13 -69 -66 -243 -93 -243c-12 0 -29 10 -29 37c10 117 17 231 23 347c-1 0 -2 0 -3 1c-21 -93 -103 -385 -193 -385h-6c-48 12 -57 87 -57 132v14c0 82 21 182 39 267c-1 1 -1 0 -3 2l-86 -159
c-37 -68 -78 -139 -132 -207c-10 -9 -20 -16 -37 -19c-52 0 -61 71 -61 110c0 161 114 445 207 445c28 0 70 -33 70 -82l-18 11c-1 0 -5 2 -5 2l-8 5v-1c-7 2 -15 4 -21 4c-91 -26 -182 -288 -182 -394c0 -23 6 -33 12 -33z" />
    <glyph glyph-name="a_t" unicode="at" horiz-adv-x="724" 
d="M255 481l-7 1l3 -3c-6 0 -13 3 -19 8h2l-7 4v-1c-11 4 -18 7 -23 7c-95 -19 -183 -288 -183 -395c0 -9 0 -20 4 -27l3 -3l-2 3c4 -3 5 -5 7 -5c29 0 112 150 137 194h-1l3 4c25 43 51 94 76 139h-2c31 58 63 116 95 168h-1c1 4 6 8 12 10c6 0 13 -4 15 -7v1
c6 -8 11 -20 11 -30c0 -3 0 -8 -1 -11l-14 -65c-2 -12 -7 -24 -9 -36c-27 -110 -58 -229 -58 -349c0 -18 3 -58 19 -61c91 8 176 349 206 470v-1c15 215 37 440 64 649c-191 -11 -396 -26 -569 -49c-4 -1 -11 -1 -16 -1c-15 0 -36 6 -42 19c0 23 29 37 53 40
c174 23 380 36 581 45c12 103 32 207 50 301c12 66 41 169 103 169l-15 -40c-37 -121 -60 -257 -77 -389l-5 -39c175 7 354 11 508 15c21 0 114 4 208 4c103 0 211 -3 228 -18c-46 -26 -419 -33 -438 -34l-513 -21c-71 -507 -109 -1051 -109 -1558c0 -108 3 -217 14 -325
c8 -86 16 -223 113 -253l-35 -7c-74 0 -106 176 -115 251c-19 152 -23 311 -23 463c0 203 11 403 22 604c-1 0 -1 1 -2 1c-22 -87 -98 -350 -185 -350h-6c-43 11 -58 79 -58 124v18c0 80 21 185 41 271l-4 3l-28 -52l-56 -108l-20 -34c-45 -76 -100 -187 -150 -192
c-52 0 -62 69 -62 107c0 148 117 448 208 448c26 0 70 -32 71 -74z" />
    <glyph glyph-name="a_k" unicode="ak" horiz-adv-x="994" 
d="M315 27h1c83 0 180 363 201 451v-1c14 311 33 650 78 958c13 74 42 246 102 264h7c2 0 6 0 9 -3c0 -7 -6 -16 -6 -21c-81 -262 -101 -534 -116 -792l-5 -63c-17 -273 -32 -553 -38 -832c1 0 3 -1 4 -1c61 226 213 655 374 696l6 -8l-8 -7c-5 -5 -7 -8 -23 -19
c-105 -90 -195 -324 -245 -478c42 -42 94 -65 145 -65c21 0 42 3 63 12l-4 -5c0 1 55 37 67 37c3 -5 6 -10 6 -11c0 -23 -45 -61 -54 -67c-25 -16 -52 -25 -80 -27c-59 0 -115 13 -168 59c-35 -117 -70 -250 -84 -372c-1 -11 -12 -24 -21 -24c-24 0 -29 30 -29 64
c0 180 6 365 12 552l-3 2c-22 -87 -99 -353 -185 -353h-6c-43 11 -58 79 -58 124v18c0 80 21 185 41 271l-4 3l-28 -52l-56 -108l-20 -34c-45 -76 -100 -187 -150 -192c-52 0 -62 69 -62 107c0 148 117 448 208 448c26 0 70 -34 70 -79c-7 0 -18 3 -24 8h2l-7 4v-1
c-11 4 -18 7 -23 7c-95 -19 -183 -288 -183 -395c0 -22 7 -32 12 -32c28 -1 126 177 141 204l57 104c36 67 72 137 110 197h-1c1 4 6 8 12 10c6 0 13 -4 15 -7v1c6 -8 11 -20 11 -30c0 -3 0 -8 -1 -11l-14 -65c-2 -12 -7 -24 -9 -36c-27 -110 -58 -229 -58 -349
c0 -18 2 -59 19 -61z" />
    <glyph glyph-name="o_m" unicode="om" horiz-adv-x="1218" 
d="M1112 444c0 18 0 34 -5 55c-39 -11 -73 -90 -96 -146l-10 -22l-32 -71c-35 -77 -65 -157 -123 -156c-31 4 -36 54 -36 84c0 125 24 235 24 371v34c0 22 -1 43 -12 61c-65 -14 -152 -302 -171 -361c-14 -41 -25 -87 -39 -135l-14 -47c-32 -108 -80 -287 -112 -286h-5
c-11 5 -16 9 -18 15l1 -1c-5 7 -7 15 -7 22c2 173 14 360 28 535c1 12 6 72 16 122c-41 -48 -102 -98 -150 -127c-7 -165 -79 -424 -228 -440c-99 2 -133 152 -133 245c0 62 8 128 23 186c11 30 39 107 77 107c1 0 2 0 4 -1c11 85 69 152 136 154c81 -9 112 -111 120 -205
c32 26 68 54 99 80l46 38c14 11 22 19 25 19l10 5c14 -5 16 -41 16 -76c0 -48 -5 -101 -6 -114c-10 -113 -16 -225 -22 -339c1 0 2 -1 3 -1c65 199 98 351 171 517c24 55 75 153 130 153c64 0 64 -102 64 -147c0 -47 -8 -96 -8 -140l-18 -219c0 -8 -1 -18 -1 -31v-14
c37 45 58 93 79 140l16 37c0 2 3 7 6 11h-1c31 69 88 195 146 195c40 0 48 -51 48 -84c0 -50 -7 -114 -13 -163l-20 -168c-4 -37 -7 -74 -6 -111v-9c0 -42 -1 -125 49 -166c-4 -9 -8 -9 -15 -9c-19 2 -45 60 -52 91c-9 40 -11 80 -11 122c0 80 7 160 15 237l11 106v23
c0 8 1 16 1 24zM70 380l-7 -26c-15 -48 -22 -98 -22 -148c0 -18 2 -190 75 -194c110 12 170 229 184 353c-33 -13 -67 -19 -96 -20c-48 7 -90 41 -104 102l-12 -27c-7 -16 -14 -29 -18 -40zM139 488c0 -3 -2 -4 -2 -6v-6c0 -57 42 -85 82 -85c26 0 56 9 85 21
c0 59 -7 167 -73 175c-44 -2 -86 -43 -92 -99z" />
    <glyph glyph-name="o_n" unicode="on" horiz-adv-x="897" 
d="M636 369v1c-32 -100 -64 -240 -101 -329v1c-8 -21 -19 -20 -25 -20c-12 0 -18 5 -23 14l1 -1c-5 6 -6 14 -6 22c2 163 11 326 23 488c-46 -60 -97 -113 -152 -148c-5 -166 -78 -430 -229 -446c-105 2 -133 163 -133 256c0 59 7 118 22 170c9 31 43 112 79 112
c1 0 2 0 4 -1c10 85 68 152 135 154c79 -10 114 -106 121 -199c1 1 2 1 2 1c0 1 -1 1 -1 2l1 1c44 25 43 28 90 75l27 27c27 31 53 66 64 71c17 -5 28 -29 28 -53c0 -62 -6 -128 -11 -193l-9 -114c1 0 1 -2 4 -2c10 38 25 79 35 114l6 21c30 91 84 249 168 249
c64 -11 70 -98 70 -157c0 -57 -6 -117 -14 -175c0 -4 -1 -11 -1 -15c-7 -60 -17 -132 -17 -193c0 -38 2 -71 17 -104c-6 -10 -10 -10 -13 -10c-35 7 -37 156 -37 163c0 51 5 100 9 151c0 1 -1 1 -1 5c0 56 12 125 12 188c0 28 -3 84 -31 88c-42 -1 -90 -146 -110 -203z
M64 352c-14 -49 -22 -100 -22 -150c0 -5 1 -185 75 -190c112 12 170 231 185 356c-28 -12 -58 -24 -87 -24c-51 0 -97 45 -114 104c-17 -34 -28 -65 -37 -96zM290 413l16 7c0 69 -9 163 -74 167c-43 0 -92 -45 -92 -103c0 -62 32 -84 68 -92c25 2 58 10 82 21z" />
    <glyph glyph-name="a_r" unicode="ar" horiz-adv-x="923" 
d="M255 481l-7 1l3 -3c-7 0 -16 4 -22 10h1l-11 6l1 -1c-4 2 -11 3 -16 3c-93 -16 -183 -290 -183 -396c0 -21 7 -31 12 -31c25 0 122 169 142 205l59 110c35 65 71 132 107 190h-1c1 4 8 8 13 10c17 -3 25 -21 25 -35v-11l-11 -46c-31 -129 -57 -255 -58 -374
c0 -10 -3 -81 26 -81c46 0 94 143 114 200l3 12v-1c23 104 66 270 66 294l4 20c4 20 17 23 27 25c21 -10 26 -69 26 -93c-1 -63 -2 -129 -7 -193l-4 -55c1 0 4 -1 5 -1c37 112 138 392 249 392h10c50 -9 78 -60 78 -126c0 -12 -2 -26 -6 -32c-19 5 -7 22 -16 41l-3 16
c-6 32 -25 56 -53 59c-120 -15 -249 -489 -276 -610c-3 -12 -11 -20 -24 -23c-1 0 -4 0 -9 2v-1c-17 7 -18 17 -22 37l17 368c-1 0 -4 1 -5 1c-18 -98 -78 -385 -172 -385h-6c-53 8 -59 98 -59 138c0 90 14 184 33 275c-3 1 -4 1 -5 3l-21 -38h1c-46 -96 -95 -188 -163 -287
v1l-8 -11c-19 -26 -42 -59 -71 -63c-46 2 -60 59 -60 111c0 164 113 444 208 444c26 0 70 -32 71 -74z" />
    <glyph glyph-name="o_r" unicode="or" horiz-adv-x="859" 
d="M457 495l-5 1c-24 -42 -64 -80 -99 -106c-8 -164 -78 -424 -229 -439c-101 3 -133 153 -133 246c0 62 10 132 24 184c8 29 49 109 75 109c1 0 3 0 8 -2c10 83 66 154 132 154c80 -7 115 -98 121 -205c35 24 59 47 79 72v-1l47 77c2 1 6 3 11 3c20 -11 26 -63 26 -91
c0 -4 -1 -6 -1 -9l1 -13c0 -76 -7 -151 -11 -227c1 0 1 -2 3 -2c38 113 140 392 252 392h9c46 -10 78 -59 78 -122c0 -13 -2 -31 -8 -36c-17 5 -11 23 -14 41l-3 16c-6 32 -28 56 -53 59c-120 -15 -247 -482 -277 -611c-2 -10 -10 -19 -20 -22c-26 0 -32 20 -35 38l22 166
v328zM302 356v5c-28 -10 -54 -16 -78 -16c-55 0 -106 36 -123 105c-24 -39 -33 -74 -36 -94c-15 -50 -23 -103 -23 -156c0 -14 3 -184 75 -188c110 12 170 225 185 344zM305 408v44c-4 56 -17 132 -73 135c-44 0 -84 -43 -92 -99c2 -76 43 -98 88 -98c24 0 55 9 77 18z" />
    <glyph glyph-name="e_r" unicode="er" horiz-adv-x="831" 
d="M465 -14c-3 -12 -10 -20 -22 -23c-23 0 -34 22 -34 39c2 72 6 144 10 216l10 212c-1 0 -1 1 -2 1c-40 -151 -177 -383 -316 -398c-87 5 -117 94 -122 205c1 167 97 402 242 420c2 1 2 1 3 1c36 0 98 -26 98 -95c0 -154 -191 -230 -290 -260c-4 -18 -4 -32 -4 -44
c0 -62 6 -165 71 -167c121 0 239 224 287 344c6 20 40 144 66 151c21 -10 26 -69 26 -93c-1 -63 -2 -129 -7 -193l-4 -55c2 0 4 -1 5 -1c37 113 138 392 250 392h9c50 -9 79 -61 79 -126c0 -13 -4 -28 -13 -40c-8 49 -19 119 -66 124c-120 -15 -249 -489 -276 -610zM278 559
c-4 27 -29 32 -47 33c-83 -11 -150 -142 -179 -244c48 21 227 126 227 202c0 1 -1 2 -1 4v5z" />
    <glyph glyph-name="o_f" unicode="of" horiz-adv-x="767" 
d="M485 712l-6 7c-37 -14 -73 -32 -102 -50c-5 0 -23 17 -23 32c0 32 76 56 128 76l13 5c33 230 126 737 339 771c23 -1 47 -4 68 -18c37 -30 62 -85 62 -143c0 -9 0 -20 -1 -28c-4 -25 -22 -115 -50 -119l-1 24c-1 8 -1 20 -1 31c0 10 0 23 1 33c-1 12 -1 28 -1 34
c0 80 -30 115 -74 117c-168 -28 -257 -503 -287 -684c58 17 125 32 183 41c5 0 36 6 69 6c29 0 58 -8 58 -24c-6 -14 -72 -22 -106 -26c-65 -11 -149 -35 -213 -56c-48 -338 -70 -688 -70 -1036c0 -112 6 -219 9 -330c6 -84 -3 -134 40 -259c-62 27 -78 306 -82 365
c-7 110 -10 238 -10 356c0 216 12 444 35 671l-4 2c-27 -46 -66 -90 -106 -120c-8 -164 -78 -424 -229 -439c-101 3 -133 153 -133 246c0 62 11 131 24 184c8 24 43 109 75 109c4 0 5 0 8 -1c8 86 66 151 133 153c85 -8 114 -110 121 -205c31 22 57 48 77 71v-1l40 63
c2 34 8 72 12 106zM302 356v7c-3 -1 -11 -4 -11 -4h3c-25 -9 -44 -14 -70 -14c-56 0 -106 30 -122 101c-39 -88 -60 -158 -60 -246c0 -14 3 -184 75 -188c110 12 170 225 185 344zM306 407l-1 5v40c-4 57 -17 131 -73 135c-44 0 -84 -43 -92 -99c2 -76 43 -98 88 -98
c25 0 56 8 78 17z" />
    <glyph glyph-name="a_f" unicode="af" horiz-adv-x="806" 
d="M87 126v1c30 45 60 96 88 148l59 110c35 65 71 132 107 190h-1c1 4 8 8 13 10c17 -3 25 -21 25 -36c0 -3 0 -7 -1 -10v1c-25 -122 -64 -328 -64 -464c0 -20 6 -56 18 -56c47 0 105 162 122 213l50 193v-1c9 99 19 201 32 297c-40 -15 -77 -32 -105 -51h1
c-2 -2 -2 -2 -7 -2c-4 0 -20 15 -20 31c0 40 86 56 139 82c34 230 127 737 339 771c87 -4 131 -79 131 -158v-14c0 -5 -1 -12 -1 -17c-3 -22 -19 -114 -51 -119l-1 26c-1 19 -1 50 -1 69c1 11 1 19 1 27c-4 80 -28 115 -73 117c-169 -27 -259 -503 -289 -684
c59 17 126 33 184 41c8 0 37 6 68 6c29 0 59 -5 61 -22c-3 -16 -111 -30 -128 -31c-61 -14 -131 -32 -192 -53c-49 -333 -71 -679 -71 -1022c0 -168 4 -334 21 -500c0 -20 7 -48 29 -104c-64 31 -81 312 -84 366c-7 109 -9 233 -9 351c0 138 5 264 13 398l-4 2
c-24 -96 -84 -262 -155 -266c-53 5 -55 99 -55 137c0 99 15 207 34 305c-1 0 -1 1 -2 2c-60 -111 -113 -213 -191 -334c-18 -27 -48 -70 -79 -73c-44 1 -60 61 -60 107c0 161 116 448 208 448c26 0 70 -34 70 -79c-7 0 -18 3 -24 8h1l-11 6c-4 2 -13 4 -17 4
c-96 -19 -184 -288 -184 -395c0 -29 9 -32 12 -32c12 0 47 46 54 56z" />
    <glyph glyph-name="e_f" unicode="ef" horiz-adv-x="722" 
d="M539 795c51 15 107 27 155 38l41 9c12 2 35 5 59 5c31 0 56 -5 59 -22c-3 -18 -73 -24 -105 -29c-69 -10 -146 -36 -216 -60c-49 -333 -70 -677 -70 -1020c0 -19 -1 -39 -1 -59c0 -91 4 -182 9 -271l3 -53c4 -67 8 -140 22 -177l17 -46c-63 50 -80 314 -84 371
c-6 98 -9 216 -9 322c0 209 8 416 27 622c-2 0 -4 1 -5 2c-53 -167 -179 -380 -330 -394c-87 5 -117 94 -122 205c1 167 96 403 239 421c63 -3 104 -41 104 -108c0 -100 -104 -172 -170 -206c-17 -9 -75 -28 -106 -28c-4 0 -8 0 -11 1c-4 -28 -7 -52 -7 -79
c0 -68 16 -143 71 -146c115 0 221 173 278 288l30 82l43 115l4 40c2 26 4 54 9 80l3 19c-33 -14 -66 -33 -90 -48c-11 0 -15 9 -22 20v10c0 34 72 61 120 78c34 231 129 743 340 776c89 -4 131 -82 131 -162c0 -9 0 -20 -1 -28c-4 -23 -20 -113 -51 -118l-1 34
c0 3 -1 7 -1 11v21c0 7 1 15 1 22c0 101 -23 149 -75 151c-167 -27 -258 -507 -288 -689zM232 592h-1c-85 -8 -150 -144 -179 -246c30 6 56 17 64 22c40 21 162 119 162 188c0 31 -32 36 -46 36z" />
    <glyph glyph-name="i_f" unicode="if" horiz-adv-x="513" 
d="M267 -519c-6 100 -9 213 -9 322c0 172 6 328 17 494c-1 0 -2 0 -3 1c-21 -84 -95 -289 -176 -289c-49 0 -70 62 -78 108l-6 61c-1 12 -1 30 -1 42c0 107 17 385 59 385c19 0 28 -21 29 -36c0 -7 0 -20 -2 -29c-16 -97 -32 -217 -32 -322c0 -16 1 -33 2 -49
c0 -8 0 -96 28 -96l2 2c51 23 107 177 127 240l27 109c17 68 38 161 55 215l9 77c-33 -15 -66 -31 -91 -47c-8 0 -22 15 -22 32c0 32 74 59 120 76c34 231 130 743 341 776c22 -2 49 -4 69 -18c38 -28 62 -90 62 -140v-14c0 -5 -1 -12 -1 -17c-3 -22 -21 -115 -47 -119
c-5 6 -7 26 -7 48c0 11 1 22 1 32v25c0 92 -25 132 -73 134c-170 -27 -259 -506 -289 -689l21 6c80 23 152 47 233 46c28 0 57 -5 59 -22c-4 -17 -72 -24 -104 -29c-69 -10 -149 -37 -216 -60c-50 -342 -70 -695 -70 -1046v-52c0 -17 0 -34 1 -51c6 -123 -1 -298 33 -440
l15 -35c-62 45 -79 302 -83 369zM133 948l20 -14c-13 -27 -18 -52 -25 -76l-6 -20v-8c-4 -19 -11 -43 -24 -44c-13 2 -17 23 -17 39c0 31 10 97 28 136c7 -2 20 -9 24 -13z" />
    <glyph glyph-name="o_s" unicode="os" horiz-adv-x="870" 
d="M230 642c85 -6 116 -109 122 -205c25 20 85 68 123 101c16 115 71 227 173 227c71 0 111 -76 111 -162c0 -23 -2 -56 -14 -67c-7 10 -12 28 -15 40l-12 42c-14 38 -33 77 -73 77c-86 0 -110 -114 -116 -201c0 -146 39 -315 80 -465c94 130 271 311 326 311
c0 -8 -25 -36 -74 -80c-88 -80 -170 -184 -237 -283c41 -161 84 -331 84 -538c0 -175 -71 -430 -248 -430c-100 0 -161 102 -169 242c0 244 160 547 275 719l-8 38c-40 147 -84 327 -85 490c-40 -40 -81 -82 -120 -107c-7 -165 -79 -424 -229 -440c-104 2 -133 161 -133 253
c0 53 10 126 23 175c8 30 50 112 75 112c1 0 5 -1 7 -2c9 87 66 153 134 153zM340 -747c3 -102 47 -179 119 -182c137 0 197 210 197 345c0 181 -33 346 -73 500c-99 -159 -243 -442 -243 -652v-11zM207 345h-1c-48 6 -89 39 -104 100l-22 -46c-26 -49 -38 -133 -38 -197
c0 -8 2 -186 75 -190c111 12 171 229 185 353c-34 -13 -67 -20 -95 -20zM297 508v1c-9 41 -26 75 -65 78c-50 0 -92 -52 -92 -115c0 -56 44 -81 80 -81c28 0 57 9 85 21v22c0 24 -4 49 -8 74z" />
    <glyph glyph-name="e_s" unicode="es" horiz-adv-x="905" 
d="M229 658v-1c4 2 4 2 5 2c51 0 99 -42 99 -106c0 -101 -104 -174 -171 -208c-19 -10 -87 -29 -114 -29c-1 0 -1 0 -2 1c-5 -28 -8 -51 -8 -78c0 -66 15 -146 71 -146c117 0 221 173 278 288l33 91v-1c1 5 5 10 6 15l18 53c16 114 73 226 175 226c70 -3 108 -76 108 -162
c0 -23 -2 -56 -13 -66c-10 13 -17 42 -22 60l-6 21c-11 37 -33 77 -68 77c-88 0 -117 -108 -121 -201c0 -159 36 -309 79 -465c96 131 215 289 357 304l3 -8l-58 -28h1c-124 -79 -200 -191 -288 -320c43 -159 84 -328 84 -533c0 -176 -67 -435 -247 -435
c-101 0 -162 104 -170 242c2 244 161 548 278 720l-7 25c-38 135 -75 275 -86 426c-1 0 -2 2 -3 2c-52 -165 -179 -378 -330 -391c-86 4 -116 93 -121 205c2 169 93 407 240 420zM328 -849c21 -50 55 -78 98 -80c146 0 198 227 198 360c0 179 -33 334 -73 487
c-99 -160 -243 -446 -243 -656c0 -41 4 -75 20 -111zM278 559c-4 27 -29 32 -47 33c-84 -11 -150 -144 -179 -245c28 7 62 17 69 22c43 23 157 121 157 190z" />
    <glyph glyph-name="a_s" unicode="as" horiz-adv-x="947" 
d="M255 481l-7 1l3 -3c-6 0 -13 3 -19 8h2l-7 4v-1c-11 4 -18 7 -23 7c-95 -19 -183 -289 -183 -395c0 -29 9 -32 12 -32c25 0 122 169 142 205l59 110c35 65 71 132 107 190h-1c1 4 6 8 12 10c19 0 26 -28 26 -35v-11l-17 -70c-31 -125 -63 -251 -62 -391
c0 -22 4 -59 22 -59h5c74 29 166 345 187 440c0 9 -1 27 -1 36c7 131 57 270 178 270c65 -3 108 -80 108 -160c0 -24 -3 -56 -15 -69c-7 10 -10 25 -14 39l-12 43c-12 36 -33 77 -70 77c-86 0 -116 -110 -119 -201c0 -146 39 -315 80 -465c86 119 214 266 333 321
c4 1 9 4 15 4c3 0 5 -5 8 -9c0 -5 -5 -8 -12 -12h1l-3 -2c-125 -80 -240 -224 -328 -354c42 -162 85 -332 85 -539c0 -175 -73 -429 -249 -429c-65 0 -114 42 -146 112c-14 37 -20 88 -23 129c1 244 161 548 278 720l-11 39c-31 112 -63 237 -77 358c-2 0 -2 0 -3 1
c-24 -112 -98 -373 -179 -401l-14 -2c-51 0 -58 72 -61 116c0 105 17 209 39 312l-3 2l-89 -166c-28 -53 -60 -104 -92 -153c-18 -27 -47 -70 -79 -73c-44 1 -60 61 -60 108c0 154 114 447 208 447c26 0 70 -32 71 -74zM378 -747c4 -102 48 -179 119 -182
c146 0 197 229 197 361c0 168 -34 332 -74 484c-99 -158 -242 -440 -242 -652v-11z" />
    <glyph glyph-name="s_a" unicode="sa" horiz-adv-x="846" 
d="M428 70c28 -1 126 177 141 205l77 141h-1c28 53 57 107 91 157c1 5 8 8 12 10c11 0 22 -7 22 -35v-6c-23 -121 -41 -267 -41 -394c0 -25 1 -50 3 -75c-1 -35 2 -96 34 -123l18 -15c-87 0 -83 187 -83 264c0 75 6 157 14 238c-1 0 -2 1 -3 1c-20 -37 -37 -72 -55 -108
l-9 -18c-36 -72 -91 -167 -138 -235c-18 -26 -48 -70 -79 -72c-44 0 -60 59 -60 106c0 90 34 202 66 279l-6 5c-92 -129 -179 -262 -258 -399c43 -163 89 -343 89 -552c0 -170 -63 -436 -252 -436c-97 6 -153 92 -164 243c0 241 165 553 272 736c-44 157 -90 337 -90 508
c5 125 50 270 173 270c66 0 105 -63 112 -138c0 -16 0 -72 -15 -93c-8 12 -11 43 -19 62l-6 22c-11 39 -31 76 -69 78c-88 0 -116 -109 -120 -202c0 -144 33 -292 73 -441c87 141 178 275 275 387c47 54 109 121 149 121c30 0 69 -32 69 -73v-9c-23 0 -43 16 -53 16
c-93 -13 -182 -285 -182 -392c0 -28 9 -33 13 -33zM12 -929c138 0 197 211 197 345c0 181 -34 355 -76 512c-92 -168 -238 -449 -238 -664c0 -103 43 -190 117 -193z" />
    <glyph glyph-name="s_e" unicode="se" horiz-adv-x="923" 
d="M305 541l-10 2c-4 7 -12 34 -16 55l-6 20c-12 38 -33 78 -69 78c-88 0 -116 -110 -120 -202c0 -146 35 -295 74 -444c102 164 259 409 384 525c32 30 67 54 119 58l3 1c53 0 97 -40 97 -107c0 -103 -110 -176 -178 -210c-29 -15 -57 -25 -98 -25h-15
c-5 -27 -7 -51 -7 -78c3 -83 36 -132 95 -132c95 0 214 85 291 149l138 147c0 -1 1 -16 1 -17c0 -33 -88 -130 -111 -156v1l-7 -8c-78 -79 -206 -174 -315 -174c-81 0 -137 71 -142 189c1 73 12 137 34 198l-5 4c-93 -135 -184 -275 -269 -421c44 -163 89 -342 89 -550
c0 -175 -69 -436 -249 -436c-61 0 -113 44 -144 113c-14 37 -20 88 -23 129c0 245 165 551 272 735c-44 164 -90 331 -90 510c5 120 50 251 157 269h12c1 0 2 1 4 1c73 0 112 -77 112 -162c0 -23 -1 -55 -8 -62zM12 -929c138 0 197 211 197 345c0 181 -33 348 -75 509
c-93 -168 -239 -452 -239 -661c0 -103 43 -190 117 -193zM661 567c-82 -13 -157 -145 -185 -235c60 13 232 123 232 199c0 31 -37 36 -47 36z" />
    <glyph glyph-name="s_m" unicode="sm" horiz-adv-x="1226" 
d="M1109 398c1 16 1 40 1 61c0 16 -2 28 -5 40c-38 -9 -73 -90 -96 -146v1c-2 -7 -8 -17 -10 -24l-18 -40c-19 -41 -69 -186 -136 -186c-35 6 -36 57 -36 91c0 47 4 97 9 145l4 39c3 67 12 142 12 218c0 21 -3 44 -13 58c-28 -12 -65 -73 -80 -107l-6 -13h1
c-50 -121 -82 -244 -127 -377l-4 -18c-26 -101 -86 -315 -121 -315h-4c-15 7 -25 20 -25 36c2 179 15 358 29 536c0 1 -1 3 -1 4c2 24 7 79 16 123c-1 -2 -4 -4 -5 -6c-125 -163 -229 -337 -327 -520c43 -164 90 -357 90 -569c0 -173 -66 -415 -250 -421
c-103 10 -160 104 -160 240c0 261 143 518 265 741l-12 44c-37 148 -77 298 -77 462c6 123 51 270 173 270c68 0 113 -72 113 -156c0 -23 -2 -60 -13 -72c-10 13 -17 42 -22 60l-6 21c-11 37 -34 78 -69 78c-89 0 -117 -109 -120 -202c0 -145 33 -293 73 -438
c85 149 175 297 265 415c21 27 66 85 95 101l9 5h-2c2 2 9 2 9 2c14 -8 18 -44 18 -80s-6 -72 -6 -96v-13c-10 -113 -19 -226 -24 -340c1 0 1 -2 3 -2l79 268l11 32c24 70 51 149 82 218c24 56 75 153 130 153c60 0 63 -97 63 -144c0 -46 -3 -97 -7 -143l-19 -202
c0 -3 1 -9 1 -12c-2 -11 -2 -32 -2 -39c0 -2 1 -5 1 -10c10 12 15 20 19 28l10 13v-1l13 24h-1c19 36 36 75 54 112l11 23c34 71 85 183 140 183h6c37 -9 42 -55 42 -88c0 -151 -39 -290 -39 -438v-9c0 -43 -1 -127 50 -165c1 -1 1 -2 1 -3c0 -2 -2 -4 -10 -6
c-61 30 -72 130 -72 197c0 124 22 242 27 359zM-103 -773c6 -90 34 -153 111 -156c147 0 197 228 197 361c0 179 -36 339 -77 496c-62 -118 -115 -234 -162 -354c-41 -103 -71 -201 -71 -317c0 -10 0 -20 2 -30z" />
    <glyph glyph-name="s_l" unicode="sl" horiz-adv-x="710" 
d="M288 593l-6 27c-13 35 -38 82 -75 84c-85 -7 -118 -115 -121 -210c0 -143 35 -299 75 -444l9 -37l178 296c45 75 88 150 128 225c29 324 171 1381 345 1381c75 0 98 -92 98 -168c0 -12 -2 -27 -3 -39c-44 -425 -200 -869 -387 -1215c-11 -131 -19 -261 -19 -392
c0 -96 5 -193 16 -291c16 -113 31 -339 162 -339c6 0 11 2 16 6c0 -10 -7 -20 -11 -20c-144 0 -188 195 -209 330c-19 119 -24 238 -24 359c0 83 3 165 8 250c-2 0 -4 1 -5 1c-56 -102 -125 -209 -185 -310l-88 -148c39 -152 75 -325 75 -522c0 -170 -77 -408 -252 -408
c-90 5 -160 105 -167 230v50c13 154 98 328 162 451l122 208l-20 73c-37 136 -69 271 -79 406l-2 71c7 124 55 264 169 264c70 0 113 -82 113 -168c0 -17 -2 -40 -7 -62c-9 26 -10 33 -13 43zM152 -137l-7 2c-30 -45 -65 -113 -92 -163c-65 -120 -155 -297 -155 -446
c0 -98 46 -176 116 -180c134 0 196 204 196 337c0 168 -26 318 -58 450zM860 1826v-1c-7 20 -17 30 -36 32c-10 -1 -19 -8 -23 -16c-114 -209 -224 -928 -260 -1198c2 -1 4 -2 5 -2c169 325 293 676 323 1072v14c0 5 1 9 1 14c0 27 -2 60 -10 85z" />
    <glyph glyph-name="c_p" unicode="cp" horiz-adv-x="1072" 
d="M650 -27c-40 -290 -63 -567 -84 -855c-4 -57 -2 -184 -36 -184h-9c-9 3 -18 12 -22 22l-2 14c8 277 22 565 36 848l33 680c-1 0 -2 1 -3 1c-78 -194 -237 -487 -428 -504c-80 2 -134 56 -142 173l-2 31c11 155 110 390 243 409c51 -2 109 -38 109 -124
c0 -11 -8 -91 -33 -93c-10 12 -14 41 -17 64l-3 21v-1c-4 28 -15 62 -52 64c-103 -15 -186 -224 -195 -342c1 -98 34 -139 90 -139c100 3 199 117 261 204c20 32 101 182 153 277l34 62h-1c3 8 8 19 19 19c21 0 26 -42 26 -82c0 -26 -2 -51 -2 -68
c-8 -157 -16 -310 -25 -467c3 0 4 0 6 -1c24 164 54 329 99 479c36 110 103 272 205 288c77 -3 119 -54 119 -182c-11 -212 -118 -475 -312 -475h-46c-8 -52 -15 -103 -19 -139zM924 718c-2 0 -7 0 -9 -1c-137 -57 -205 -359 -242 -583c10 1 21 1 30 1h15
c155 42 259 260 270 453c-1 74 -17 130 -64 130z" />
    <glyph glyph-name="e_p" unicode="ep" horiz-adv-x="971" 
d="M538 -27c-39 -267 -58 -523 -79 -788l-18 -223c-2 -9 -19 -28 -23 -28h-8c-10 1 -17 8 -22 16l-4 19c8 261 22 524 35 786l34 695l-4 2c-51 -175 -180 -405 -339 -419c-86 4 -116 93 -121 205c2 167 92 403 239 420c1 1 4 1 6 1c40 0 99 -28 99 -106
c0 -106 -105 -174 -171 -208c-10 -5 -97 -31 -118 -32c-6 -28 -6 -47 -6 -74c0 -66 15 -146 71 -146c117 0 221 173 278 288l34 94v-1l15 41c36 98 36 105 51 105c20 0 27 -41 27 -79c0 -27 -5 -50 -5 -64v-4c0 -1 1 -2 1 -3l-24 -467c1 0 4 -1 5 -1c25 164 55 329 100 479
c36 110 103 272 204 288c63 -2 103 -35 116 -115l4 -67c-11 -203 -114 -481 -294 -481c-8 0 -16 1 -24 2l-39 9c-9 -54 -16 -107 -20 -144zM871 646c-6 46 -22 72 -59 72c-3 0 -7 0 -9 -1c-134 -56 -206 -359 -242 -581l15 -3c7 -1 23 -2 25 -3c1 0 1 1 2 1
c173 30 272 265 272 471c0 14 -2 30 -4 44zM117 376c39 21 161 113 161 180c0 30 -30 35 -47 36c-83 -11 -149 -142 -178 -243c17 9 29 13 44 19z" />
    <glyph glyph-name="i_p" unicode="ip" horiz-adv-x="822" 
d="M388 -27c-39 -298 -64 -581 -86 -877l-9 -134c-3 -13 -11 -28 -25 -28h-6c-11 2 -21 12 -24 22l-3 14c12 366 32 734 50 1101l14 281l-3 2c-28 -99 -112 -373 -208 -380c-78 10 -79 161 -79 231c0 17 2 34 2 51c0 61 17 349 58 349c21 0 28 -25 28 -41c0 -5 0 -14 -1 -20
c-18 -116 -33 -243 -33 -367c0 -13 0 -27 1 -40v-7c1 -25 3 -82 26 -92c77 33 172 366 189 420v-1c18 83 38 163 60 163c21 0 25 -41 25 -80c0 -19 -1 -39 -2 -54l-24 -483c1 0 3 -1 4 -1c24 160 55 331 100 479c33 110 106 272 204 288c78 -3 120 -55 120 -182
c-10 -213 -125 -478 -319 -478h-9c-9 0 -18 1 -30 1c-7 -39 -10 -76 -15 -108zM663 718c-3 0 -6 0 -10 -1c-129 -67 -206 -369 -240 -586h14c194 0 296 243 299 457c0 76 -14 130 -63 130zM132 949l-4 1c-2 -1 14 -6 14 -12l10 -5c-26 -51 -29 -147 -58 -147
c-12 2 -15 22 -15 39c0 31 10 98 27 136c13 -2 24 -10 26 -12z" />
    <glyph glyph-name="t_h" unicode="th" horiz-adv-x="694" 
d="M238 1630l-11 -39c-10 -34 -19 -67 -18 -85c-20 -98 -35 -204 -48 -304l181 6c19 159 73 567 206 567c7 0 14 -2 16 -9c-4 -9 -14 -22 -22 -30l-7 -9c-76 -120 -116 -361 -137 -517l265 6c10 1 107 4 208 4c104 0 211 -3 228 -18c-46 -26 -419 -33 -438 -34l-268 -10
c-38 -317 -48 -642 -59 -972c1 0 1 -1 3 -1c25 89 52 181 84 267c26 69 77 192 136 192c61 0 61 -107 61 -144c0 -61 -10 -125 -10 -186l-3 -42c-4 -55 -9 -113 -9 -171c0 -52 -1 -130 38 -175l23 -27c-92 33 -92 183 -92 250c0 50 2 102 6 151l3 40c0 62 6 120 6 180
c0 24 -3 51 -18 71h-7c-48 -26 -107 -210 -124 -271c-39 -119 -68 -241 -103 -358c-5 -11 -12 -17 -23 -17c-12 0 -28 16 -28 34c7 393 17 784 60 1176c-64 -2 -119 -6 -183 -8c-58 -473 -86 -973 -86 -1446c0 -129 6 -255 18 -383v1c11 -84 32 -228 91 -243h25
c-13 -8 -27 -13 -32 -13c-79 0 -108 172 -119 246c-27 176 -31 359 -31 537c0 421 30 885 78 1298c-192 -10 -401 -25 -573 -48c-5 -1 -12 -1 -17 -1c-17 0 -37 6 -43 19c0 23 30 37 53 40c175 23 384 36 587 45c12 97 30 215 47 304c13 66 48 165 98 165
c0 -9 -4 -17 -7 -25v1c-1 -2 -2 -5 -2 -6l-4 -9z" />
    <glyph glyph-name="l_s" unicode="ls" horiz-adv-x="780" 
d="M282 -42l5 25l22 76c28 98 67 232 87 285c-8 49 -11 96 -11 151c6 134 54 270 178 270c61 -3 98 -66 108 -137v-7c0 -25 0 -72 -15 -86c-7 10 -11 24 -15 40l-12 43c-13 35 -31 72 -64 76l-2 -2c-2 1 -8 3 -8 3c-85 -2 -109 -112 -115 -201c0 -158 37 -308 80 -465
c86 119 175 232 291 292c15 8 28 13 44 15c-8 -11 -21 -25 -35 -35c-123 -84 -199 -195 -285 -324c41 -159 83 -327 83 -533c0 -176 -65 -435 -247 -435c-99 0 -161 100 -169 242c0 243 160 546 277 718l-9 37c-26 94 -48 165 -65 271c-1 -2 -1 -4 -1 -6
c-20 -103 -65 -256 -85 -310l-7 -19v1c-32 -104 -101 -295 -201 -310c-96 5 -113 178 -118 275l-2 102c3 330 115 1851 354 1885c86 -7 99 -108 99 -199c-16 -286 -167 -779 -265 -1031c-15 -39 -79 -195 -123 -250c-13 -146 -22 -292 -22 -452c0 -88 7 -280 72 -280
c81 0 149 200 176 275zM496 -92l-6 2c-97 -152 -239 -435 -239 -645c0 -106 44 -191 119 -194c137 0 196 210 196 345c0 187 -30 345 -70 492zM389 1702v10c0 4 2 8 2 12c0 38 -7 100 -45 104c-145 -27 -261 -1115 -277 -1272c2 -1 2 -1 4 -1c8 25 21 52 30 81
c102 274 270 746 286 1066z" />
    <glyph glyph-name="t_s" unicode="ts" horiz-adv-x="864" 
d="M375 -1030c-99 6 -156 92 -167 242c1 244 159 547 277 719l-9 35c-23 80 -44 163 -59 244c-39 -146 -138 -458 -278 -474c-105 9 -119 239 -119 406c0 301 27 651 65 962c-173 -10 -361 -25 -518 -46c-5 -1 -14 -1 -17 -1c-18 0 -37 6 -44 19c2 24 31 37 54 40
c162 21 348 33 532 42c11 73 24 153 38 223c13 66 53 215 107 229c3 0 12 -3 17 -5c0 -11 -6 -27 -12 -35l-31 -102c-29 -97 -44 -203 -61 -306c140 7 294 9 431 13l76 2c38 1 37 4 255 5c106 0 212 -3 229 -18c-46 -26 -419 -33 -438 -34l-200 -8
c-115 -5 -243 -10 -361 -16c-41 -315 -72 -697 -72 -1003c0 -31 0 -63 3 -94c0 -50 12 -215 62 -217c69 2 129 128 159 195l24 68v-1l13 40c21 65 54 152 73 196c-7 52 -12 103 -12 167c6 133 54 270 178 270c60 -3 98 -66 108 -137v-7c0 -24 0 -71 -14 -85
c-6 8 -15 32 -19 51l-3 11c-11 66 -50 97 -80 97c-86 -4 -110 -113 -114 -201c0 -159 36 -310 79 -466c113 127 318 330 375 331c-57 -52 -304 -285 -361 -382c42 -163 85 -340 85 -549c0 -179 -81 -420 -251 -420zM277 -887c22 -50 56 -78 99 -81c145 0 197 229 197 361
c0 179 -33 333 -72 485c-99 -160 -244 -446 -244 -654c0 -40 5 -75 20 -111z" />
    <glyph glyph-name="o_l" unicode="ol" horiz-adv-x="879" 
d="M352 445l7 -4c50 31 101 88 144 143c36 369 73 745 169 1084c23 82 74 249 161 249c73 -5 88 -123 88 -195c0 -29 -2 -60 -5 -89c-33 -348 -192 -835 -376 -1095c-14 -155 -27 -311 -27 -458c0 -127 8 -388 81 -395c82 9 164 198 197 276v-1l131 389l11 -1
c-7 -70 -100 -355 -118 -404c-37 -97 -121 -282 -216 -298c-61 1 -90 95 -102 157c-20 108 -23 220 -23 330c0 92 10 229 19 348c-45 -50 -91 -91 -141 -114c-11 -156 -87 -398 -229 -412c-100 1 -131 153 -131 244c0 54 4 105 19 154c6 21 50 122 81 139
c5 89 65 158 136 158c81 0 123 -108 124 -205zM553 673l7 -5c149 250 278 655 309 975c3 27 4 60 4 89v13s0 110 -37 115c-145 -23 -257 -959 -283 -1187zM240 340c-66 0 -130 30 -144 116c-39 -72 -56 -150 -56 -238c0 -11 2 -195 77 -200c104 15 163 213 181 329
c-24 -5 -41 -7 -58 -7zM295 513c-10 40 -27 73 -64 75c-47 0 -89 -50 -89 -112c0 -63 52 -75 95 -75c21 0 42 3 64 11c0 10 1 20 1 28v12c-1 20 -7 41 -7 61z" />
    <glyph glyph-name="i_n" unicode="in" horiz-adv-x="705" 
d="M282 22h-2c-8 6 -14 22 -16 35c2 110 8 216 14 322c-1 0 -2 0 -3 1c-21 -86 -96 -365 -181 -365c-76 0 -81 140 -81 211c0 106 15 384 60 384c22 0 28 -26 28 -44c0 -4 0 -13 -1 -18c-18 -106 -34 -230 -34 -338c0 -13 0 -25 1 -37v-7c1 -23 0 -62 22 -86
c55 38 116 229 138 298l6 28c19 77 73 250 84 254c11 -2 21 -34 21 -67c0 -24 -1 -47 -4 -58c-4 -107 -14 -205 -18 -309c1 0 1 -2 3 -2c14 58 35 123 52 171c32 94 81 247 160 247c55 -7 64 -79 67 -133c0 -49 -4 -99 -8 -147l-8 -68c-8 -63 -20 -131 -19 -201
c0 -28 -1 -72 19 -72c38 0 75 89 97 147v-1l14 43c20 61 42 150 45 160c6 -5 11 -14 11 -21c0 -30 -33 -187 -44 -198l-9 -24c-22 -60 -54 -157 -111 -156c-47 0 -59 82 -59 127c0 31 1 64 5 97l12 115c6 58 16 126 15 189c0 25 -2 77 -26 81c-49 0 -97 -142 -118 -206
l-5 -12c-12 -28 -16 -61 -26 -92l-11 -39c-20 -71 -61 -212 -79 -212c-5 0 -8 1 -11 3zM124 844v-8c0 -16 -14 -43 -25 -45c-15 8 -15 41 -15 57c0 34 15 89 26 118c17 -4 24 -11 31 -17v1c5 -5 9 -8 15 -11c-17 -39 -24 -66 -32 -95z" />
    <glyph glyph-name="f_t" unicode="ft" horiz-adv-x="675" 
d="M488 776l-62 -13c-30 -219 -59 -446 -59 -664v-31c0 -74 7 -251 69 -253c74 2 148 176 178 254c7 23 81 265 103 301c5 -12 5 -18 5 -23c0 -62 -66 -272 -71 -288c-36 -103 -105 -278 -212 -286c-115 4 -118 210 -122 328c0 212 22 437 50 649c-71 -19 -158 -45 -231 -70
c-38 -321 -55 -645 -55 -970c0 -70 0 -141 3 -211c0 -109 1 -262 47 -389c-66 50 -81 317 -85 387c-7 114 -10 230 -10 347c0 272 17 548 44 817c-46 -20 -114 -62 -128 -62c-7 0 -19 11 -19 27c0 40 97 74 155 95c29 249 127 895 358 935c89 -4 129 -85 129 -170v-28
c0 -23 -23 -120 -50 -123l-1 25c-2 8 -2 21 -2 32c0 10 0 24 2 34c-8 91 -16 155 -74 158c-186 -32 -280 -640 -307 -845c80 27 156 48 232 65c11 76 25 149 43 215c15 59 60 176 115 176c4 0 8 0 8 -10c-1 0 -2 -3 -8 -13l-5 -8l1 1l-13 -30v1c-36 -112 -62 -195 -83 -320
c17 3 39 5 52 7c8 1 46 5 87 5c51 0 107 -9 110 -34c-13 0 -172 -15 -168 -15z" />
    <glyph glyph-name="a_x" unicode="ax" horiz-adv-x="1001" 
d="M322 -27h-6c-55 13 -58 107 -58 149c5 87 21 176 40 263c-1 1 -1 0 -3 2c-57 -105 -110 -215 -176 -311v1l-8 -13c-15 -25 -43 -53 -73 -61c-45 5 -59 62 -59 110c0 162 115 445 208 445c26 0 69 -38 69 -81c-8 2 -17 5 -23 10h2l-7 4v-1c-11 4 -18 7 -23 7
c-95 -19 -183 -287 -183 -395v-4c0 -15 -1 -20 10 -27c26 3 119 160 144 203c55 96 109 203 166 304c3 4 7 6 10 7c11 0 28 -3 28 -37c0 -2 -2 -5 -2 -9l-32 -133c-24 -98 -50 -205 -50 -317c0 -20 2 -55 19 -62c60 5 137 206 166 287l13 44c15 52 37 138 48 167
c0 1 2 3 2 4l8 12c31 0 51 -148 67 -223c81 119 179 243 279 329h-1c4 4 13 9 19 9c10 0 17 -8 17 -32c0 -19 -7 -29 -18 -38c-102 -86 -201 -212 -281 -328c17 -66 57 -185 118 -187c58 1 131 83 173 133l11 17c47 63 109 139 127 139c0 -22 -69 -124 -100 -174
c-56 -70 -122 -173 -214 -179c-77 2 -122 112 -151 198c-54 -82 -130 -215 -132 -313c0 -9 2 -19 2 -28c0 -10 0 -13 -7 -13s-17 48 -17 65c0 7 0 16 2 23v-1c11 111 83 241 138 328c-16 60 -25 110 -37 164l-3 13l-3 1c-23 -114 -117 -471 -219 -471z" />
    <glyph glyph-name="e_x" unicode="ex" horiz-adv-x="905" 
d="M342 -96l7 -16c-1 10 -3 19 -3 29c0 7 0 15 2 22v-1c11 114 84 246 139 332c-16 63 -26 125 -35 193c-1 0 -1 0 -3 1c-52 -160 -174 -421 -339 -431c-86 4 -116 93 -121 205c2 167 97 402 242 420c2 1 2 1 3 1c56 0 98 -43 98 -108c0 -104 -104 -175 -170 -207
c-14 -7 -61 -24 -92 -24c-6 0 -15 2 -24 6c-4 -29 -8 -62 -8 -87c0 -68 16 -146 71 -146c213 0 325 498 355 498c26 0 42 -185 58 -268l4 6c76 110 170 231 273 318c5 4 13 9 18 9c11 0 18 -9 18 -34c0 -17 -7 -27 -18 -36c-102 -83 -199 -208 -280 -325
c17 -62 56 -187 116 -190c62 1 132 83 173 134v-1l8 11c24 33 107 144 116 144c8 0 8 -3 8 -8c0 -22 -75 -134 -101 -174v1l-10 -18c-49 -65 -119 -147 -197 -152c-75 1 -122 117 -147 202c-55 -86 -133 -220 -136 -318c0 -11 2 -28 2 -39c-11 0 -14 9 -17 19zM54 359h3
c59 15 221 143 221 199c0 28 -32 33 -47 34c-83 -11 -149 -142 -177 -233z" />
    <glyph glyph-name="i_w" unicode="iw" horiz-adv-x="945" 
d="M570 397c-19 -45 -30 -101 -42 -152c0 -3 -2 -6 -2 -9l-12 -50c-17 -69 -35 -140 -57 -211c-14 -45 -54 -114 -92 -129c-103 0 -105 174 -105 276c0 60 5 120 7 183l-3 2c-26 -87 -109 -339 -191 -339h-7c-65 14 -66 135 -66 177c0 44 4 91 9 132c11 86 34 284 58 284
c17 0 27 -18 28 -33c0 -9 -1 -19 -5 -29c-25 -121 -46 -251 -46 -386c0 -30 2 -75 22 -81c84 10 202 422 232 530c8 38 22 81 44 81c4 -6 11 -20 11 -37c0 -23 -3 -53 -7 -78v1l-3 -31c0 -4 -1 -11 -1 -14c-16 -123 -29 -247 -29 -379c0 -19 2 -38 3 -57
c1 -32 5 -133 39 -136c19 8 44 74 52 94c20 56 37 128 53 189l8 30c19 97 63 283 120 283c49 0 51 -68 51 -117v-64c0 -22 -1 -44 -1 -66v-28c0 -9 1 -18 1 -27c0 -40 -2 -199 46 -203c20 19 38 66 47 91c42 148 73 330 128 488c11 31 42 111 77 124l6 -9l-11 -12v2
c-20 -31 -33 -77 -45 -120c-20 -73 -39 -147 -53 -221c-5 -27 -15 -55 -18 -81c-15 -64 -27 -133 -44 -193c-12 -43 -39 -125 -85 -125c-77 0 -90 131 -94 206l-3 57l1 168c0 16 0 29 -4 59c-5 -11 -14 -37 -17 -40zM84 843c0 34 15 89 26 118c20 -4 32 -23 48 -23
c-17 -36 -27 -67 -34 -99v-8c0 -19 -12 -45 -26 -45c-14 3 -14 35 -14 53v4z" />
    <glyph glyph-name="e_w" unicode="ew" horiz-adv-x="1093" 
d="M461 92c0 -58 4 -177 41 -180c19 4 45 73 53 94c20 56 37 128 53 189l8 30c1 6 4 13 5 19c27 90 50 264 115 264c53 0 52 -86 52 -136l-1 -166l2 -62c0 -46 7 -139 45 -141c19 18 34 60 42 83l5 9l-1 -1c17 60 33 129 48 191l11 47c18 78 44 175 70 250
c13 37 36 93 58 113l19 11l6 -8l-12 -12v2c-20 -33 -33 -78 -45 -121c-59 -201 -103 -620 -199 -620c-76 0 -94 133 -96 206l-2 57c-1 12 -1 30 -1 42v41c0 14 1 28 1 42v42c0 20 -1 46 -2 63c-23 -48 -38 -112 -52 -168l-33 -133c-14 -55 -27 -108 -46 -164
c-15 -46 -48 -117 -93 -129c-103 0 -103 172 -103 280c0 77 5 156 12 233l-4 2c-51 -143 -171 -321 -307 -328c-86 4 -116 93 -121 205c1 167 97 402 242 420c2 1 2 1 3 1c57 0 98 -44 98 -108c0 -104 -104 -175 -170 -207c-14 -7 -61 -24 -92 -24c-6 0 -15 2 -24 6
c-4 -29 -8 -62 -8 -87c0 -66 15 -146 71 -146c114 0 218 167 273 279l61 170v-1c8 43 22 102 47 102c5 -10 12 -28 12 -50c0 -23 -5 -53 -8 -75c-20 -138 -33 -280 -33 -426zM232 592h-1c-84 -8 -147 -137 -177 -233c63 16 224 119 224 197c0 31 -32 36 -46 36z" />
    <glyph glyph-name="o_d" unicode="od" horiz-adv-x="980" 
d="M705 161l-5 3c-43 -75 -108 -184 -191 -184c-81 0 -100 97 -100 171c0 80 16 162 37 237l19 55l-4 4c-31 -32 -68 -57 -110 -76c-9 -158 -83 -404 -227 -420c-101 3 -133 152 -133 246c0 59 11 131 25 187c10 28 46 107 73 107c1 0 5 -1 7 -2c9 87 66 153 134 153
c89 -6 122 -114 122 -228c37 16 69 37 99 63c20 18 38 52 64 71c38 64 83 118 154 118c37 -5 49 -19 63 -35c18 216 110 1095 284 1095c71 0 74 -115 74 -168c0 -358 -220 -1037 -341 -1296v2c-5 -109 -10 -219 -10 -332c0 -144 7 -286 29 -427c8 -49 16 -79 43 -136l6 -16
l-8 -4c-74 87 -94 316 -101 450c-4 75 -5 156 -5 231c0 45 0 86 2 131zM760 444l6 -3c118 300 215 645 261 977c7 55 11 109 11 165c0 28 -3 75 -25 80h-4c-4 -1 -7 -4 -10 -6c-137 -147 -222 -978 -239 -1213zM668 617c-1 0 -2 -1 -3 -1c-117 -26 -201 -307 -201 -464
c0 -29 4 -104 49 -104c72 0 161 186 197 262c4 96 11 197 19 294l-16 6c-13 5 -23 9 -34 8c-4 0 -7 0 -11 -1zM117 12c114 7 169 219 184 341c-26 -6 -50 -9 -69 -9h-13c-56 0 -110 43 -120 114c-2 0 -1 0 -3 1c-5 -25 -15 -49 -21 -69l-11 -35c-16 -49 -23 -102 -22 -153
c0 -14 0 -190 75 -190zM301 396l5 4c-1 77 -16 178 -74 187c-43 -2 -84 -44 -92 -99c2 -83 54 -99 100 -99c20 0 42 3 61 7z" />
    <glyph glyph-name="o_h" unicode="oh" horiz-adv-x="911" 
d="M455 508l2 4c20 335 50 738 135 1048c25 92 67 213 143 213c8 0 13 -4 17 -7c-7 -15 -12 -19 -15 -23v1l-13 -16c-30 -37 -48 -91 -64 -134c-117 -337 -153 -986 -169 -1362c1 0 1 -1 3 -1c6 18 10 40 16 59l4 13c13 42 23 85 36 120c33 101 93 275 176 275
c59 -10 69 -92 69 -140c-2 -70 -5 -153 -15 -222c-7 -77 -20 -152 -24 -238c1 -30 2 -75 24 -80c46 1 88 103 107 147c6 15 52 160 60 188l11 -1c-2 -43 -36 -161 -46 -195l-2 -8c-20 -59 -63 -174 -127 -174c-51 0 -61 75 -61 131c0 74 6 163 18 234c0 5 3 13 3 18
c4 48 12 128 12 184v20c0 20 -3 78 -29 78c-52 0 -110 -166 -134 -246l-38 -127c-24 -87 -61 -245 -92 -245c-9 0 -26 9 -26 37c3 111 10 240 15 355l2 45c-33 -41 -68 -68 -102 -87c-9 -158 -83 -405 -227 -421c-101 2 -133 153 -133 246c0 62 11 132 24 185
c9 27 46 108 75 108c1 0 3 0 8 -2c8 87 65 154 132 154c89 -6 122 -113 122 -228c36 22 80 59 103 94zM43 171c2 -50 19 -156 74 -159c111 12 169 221 184 341c-25 -6 -47 -9 -68 -9c-57 0 -115 29 -132 105c-15 -29 -26 -58 -32 -78l-4 -14c-15 -50 -22 -104 -23 -157
c0 -10 0 -19 1 -29zM232 588c-44 0 -84 -45 -92 -100c2 -80 48 -99 103 -99c20 0 40 1 62 6v12c0 5 1 10 1 15c0 68 -18 154 -74 166z" />
    <glyph glyph-name="e_h" unicode="eh" horiz-adv-x="898" 
d="M656 675c16 18 30 23 56 23c60 -10 71 -95 71 -139c0 -67 -7 -132 -14 -197c0 -8 -2 -17 -2 -25l-4 -13c0 -7 -2 -18 -2 -25c-8 -64 -17 -132 -17 -197c0 -28 -1 -81 23 -84c43 1 80 86 102 140c10 18 67 196 66 197l9 8c2 -2 2 -6 2 -13c0 -39 -44 -186 -49 -202
c-21 -60 -69 -173 -127 -173c-54 0 -62 85 -62 132c0 136 27 224 35 455c0 22 -4 74 -30 78c-53 -1 -110 -162 -134 -246l-47 -163c-24 -83 -55 -209 -86 -209c-15 7 -20 17 -24 36c5 119 9 237 17 353l-4 2c-53 -162 -175 -366 -324 -380c-87 5 -117 94 -122 205
c1 171 95 410 245 421c57 0 98 -44 98 -108c0 -104 -104 -175 -170 -207c-14 -7 -61 -24 -92 -24c-6 0 -15 2 -24 6c-4 -29 -8 -62 -8 -87c0 -66 15 -146 71 -146c120 0 219 167 273 280l31 82v-1c9 32 23 69 33 95v-2c22 334 47 707 131 1012c22 79 66 214 146 214
c5 0 12 -5 15 -9c-5 -9 -14 -22 -22 -29v1l-8 -9c-167 -250 -211 -1061 -231 -1495c2 0 2 -2 4 -2l17 63c1 6 5 13 6 19c11 40 23 79 33 111c25 78 68 202 119 252zM232 592h-1c-86 -8 -149 -135 -177 -232c69 17 224 112 224 196c0 31 -32 36 -46 36z" />
    <glyph glyph-name="i_b" unicode="ib" horiz-adv-x="739" 
d="M290 493l1 2c5 210 15 434 27 643c8 139 22 308 46 444c12 70 46 197 101 197c4 0 10 0 16 -5l-17 -22v2l-5 -8c-4 -3 -6 -17 -10 -32c-46 -182 -65 -397 -79 -585c-19 -325 -30 -673 -38 -999c1 0 1 -2 3 -2c40 155 151 575 281 595c48 -3 65 -82 69 -133
c0 -202 -78 -470 -222 -562l-13 -9c-8 -3 -58 -20 -94 -22l-5 -29c-8 -45 -23 -107 -33 -116h1c-2 -2 -6 -5 -18 -5c-17 4 -23 21 -23 32l4 215c1 87 1 170 5 256c-1 0 -1 1 -2 1c-25 -102 -115 -413 -214 -413c-70 10 -71 128 -71 172c0 142 51 475 78 475
c18 0 27 -22 28 -31c0 -14 -5 -36 -8 -51c-25 -127 -55 -297 -55 -430c0 -28 3 -67 24 -71c59 1 142 220 162 288l14 48c12 48 34 124 47 155zM362 19c0 -1 -1 -1 -1 -1l38 9c18 4 37 14 48 21c129 93 199 315 199 499c0 14 0 27 -1 41c-2 17 -8 66 -22 80
c-42 -12 -81 -77 -97 -112c-77 -162 -122 -354 -164 -537zM121 926l-3 5c3 -1 11 -6 23 -15l-1 2c2 -3 6 -8 14 -8c2 0 3 1 5 1c-20 -45 -31 -81 -36 -110l-4 -15c-4 -15 -7 -30 -20 -30c-8 2 -14 16 -14 31c0 34 6 96 26 143z" />
    <glyph glyph-name="u_r" unicode="ur" horiz-adv-x="1001" 
d="M365 605c1 4 9 9 13 11h7c15 -7 31 -28 31 -48c-23 -118 -40 -245 -40 -371c0 -42 2 -129 26 -129c34 0 94 163 112 209c-1 0 9 32 21 72l13 45c41 143 58 191 73 194c18 -9 23 -44 25 -71l2 -29c0 -81 -7 -162 -11 -241c1 0 3 -1 4 -1c38 113 139 392 251 392h9
c51 -11 78 -61 78 -125c0 -14 -2 -28 -8 -33c-15 7 -11 24 -14 41l-3 16c-10 31 -27 56 -53 59c-118 -14 -244 -474 -276 -610c-2 -11 -11 -23 -26 -23c-23 0 -28 22 -30 38l17 378c-1 0 -2 0 -3 1c-19 -87 -93 -350 -172 -365c-76 14 -80 151 -80 207c0 12 1 23 1 32l1 54
l-4 2c-38 -114 -112 -342 -207 -342h-5c-62 0 -95 91 -104 152l-3 40c-1 15 -1 31 -1 46c0 30 1 63 4 93c5 57 28 289 75 289c7 -3 15 -22 15 -37c0 -38 -14 -96 -14 -114c-14 -79 -27 -170 -27 -261c0 -38 3 -139 37 -142c53 0 97 100 124 160l8 14h-1
c45 122 87 266 135 397z" />
    <glyph glyph-name="i_h" unicode="ih" horiz-adv-x="752" 
d="M527 1751l-1 -1c10 6 22 9 34 9c5 0 13 -2 15 -8c-5 -10 -21 -29 -27 -35v1c-172 -259 -214 -1054 -235 -1501c2 0 5 -2 6 -2c20 63 37 139 55 195c32 99 92 275 175 275c58 -7 68 -87 71 -140c0 -157 -39 -301 -39 -462v-6c0 -30 0 -69 23 -72c45 1 85 96 107 147v-1
l60 187l11 -1c-1 -40 -44 -186 -49 -203c-20 -61 -69 -173 -128 -173c-52 0 -59 86 -59 133c0 67 7 143 15 213l5 34c0 5 2 9 2 14c5 60 12 134 12 193c0 17 -5 76 -31 79c-54 -5 -110 -174 -133 -246c-9 -26 -17 -56 -25 -86l-17 -61c-23 -81 -64 -226 -88 -226
c-6 0 -10 1 -11 3h1c-10 7 -16 20 -16 35c0 41 2 82 4 123l4 116l-3 2c-24 -87 -103 -333 -188 -333c-74 0 -76 130 -76 172l6 18c0 22 0 37 -1 37c0 0 -2 -5 -4 -15c6 94 34 429 85 429c3 0 18 -13 18 -36c0 -18 -4 -37 -6 -50c-26 -135 -53 -290 -53 -420
c0 -28 5 -64 23 -71h9c61 32 129 213 154 286l10 37c9 34 24 88 36 127c21 348 48 758 138 1078c19 70 53 174 111 206zM155 963l1 -3c5 -2 22 -15 23 -16c-14 -27 -21 -48 -25 -68l-4 -18c-9 -17 -9 -58 -29 -61c-11 2 -14 15 -14 28c0 35 9 104 27 147c11 -2 19 -7 21 -9z
" />
    <glyph glyph-name="i_k" unicode="ik" horiz-adv-x="754" 
d="M304 -291l-6 -1c-23 0 -27 26 -27 53c0 189 4 386 12 583l-4 2c-27 -114 -97 -327 -170 -370c-14 -6 -29 -8 -39 -8c-63 14 -65 132 -65 172c0 6 24 446 80 446c3 0 16 -11 16 -35c0 -16 -3 -35 -5 -48c-21 -119 -46 -265 -46 -395c0 -28 3 -69 20 -76
c76 7 177 333 176 330l8 28c12 41 22 91 37 122v-2c18 334 40 731 97 1039c11 46 42 150 88 150c3 0 7 0 11 -4l-14 -38v1c-78 -261 -94 -552 -113 -838c-18 -273 -32 -553 -39 -832c1 0 3 -1 5 -1c55 205 172 545 311 662h-1l4 3c9 7 50 30 81 32l-50 -39
c-9 -9 -21 -15 -26 -15l6 -2c-97 -106 -171 -298 -224 -455c45 -44 97 -67 146 -67c19 0 41 6 62 13c18 6 42 29 65 32c2 -5 5 -10 5 -12c0 -22 -46 -61 -54 -67c-24 -16 -52 -24 -78 -27c-58 0 -115 16 -168 59c-38 -121 -70 -249 -86 -372c-1 -10 -8 -20 -15 -23zM127 960
l-2 -2l16 -9h-1l22 -15c-18 -32 -32 -70 -32 -94l-2 -10c-3 -17 -10 -41 -23 -44c-16 8 -16 41 -16 57c0 30 14 87 28 118c0 0 1 0 1 1z" />
    <glyph glyph-name="l_t" unicode="lt" horiz-adv-x="612" 
d="M524 -8v-1c5 10 88 302 113 349c5 -15 5 -19 5 -26c0 -68 -74 -316 -85 -346c-32 -87 -96 -220 -179 -228c-111 6 -120 270 -120 433c4 297 30 635 68 936l-185 -32c-42 -338 -59 -722 -59 -1004c0 -107 3 -199 7 -269c7 -128 20 -273 64 -397c7 -19 23 -51 25 -57l2 1
l7 -8c-2 -2 -4 -4 -9 -4c-14 0 -46 53 -46 53c-50 97 -74 288 -85 406s-14 223 -14 356c0 248 18 594 53 911c-63 -15 -112 -38 -136 -38c-9 0 -18 4 -22 11h2c-3 4 -3 6 -3 8c0 41 78 58 167 78c41 341 102 653 206 656c10 -1 22 -4 24 -15c-4 -8 -5 -9 -6 -10l-3 -4v1
l-19 -23v1c-64 -118 -112 -339 -149 -594c31 6 63 10 95 15l90 15c9 71 23 149 38 219c13 66 49 215 107 229c6 0 17 -3 17 -8c0 -2 -2 -8 -2 -10l-19 -46c-5 -7 -1 -8 -5 -15l1 1c-36 -130 -58 -221 -80 -363c149 19 296 31 445 31c81 0 212 -4 216 -25
c-13 -18 -199 -24 -265 -24h-20c-124 -8 -259 -20 -383 -38c-39 -294 -73 -647 -73 -947v-39c0 -39 1 -78 3 -116c0 -54 10 -217 62 -219c63 2 112 110 141 179z" />
    <glyph glyph-name=".notdef" horiz-adv-x="362" 
 />
    <glyph glyph-name="b" unicode="b" horiz-adv-x="494" 
d="M41 -179l-5 1c-11 3 -15 7 -17 14h1c-5 7 -7 12 -7 21c9 343 22 848 45 1225c10 128 24 293 48 421c11 61 41 191 101 191c5 0 10 -3 13 -5l-9 -17v1l-11 -13l1 1l-10 -26v1c-46 -164 -68 -394 -80 -563c-20 -290 -31 -607 -40 -899c0 -20 -2 -50 -2 -70c1 0 1 -2 4 -2
c44 169 90 343 166 489c28 53 67 117 121 122c50 0 66 -82 69 -133c0 -207 -80 -493 -231 -579c-4 0 -70 -33 -108 -39l-26 -118c-3 -12 -11 -23 -23 -23zM365 659c-109 -13 -222 -477 -268 -671c179 52 292 333 292 558c0 5 -1 10 -1 16v17c0 15 -8 80 -23 80z" />
    <glyph glyph-name="c" unicode="c" horiz-adv-x="593" 
d="M343 480c-1 -21 -9 -86 -34 -89c-8 12 -15 45 -18 68l-2 17v-1c-4 25 -13 62 -51 64c-106 -14 -191 -225 -195 -342c0 -106 33 -139 90 -140c97 3 211 83 289 146l58 57c58 62 166 164 176 171c5 -10 5 -12 5 -13c0 -51 -196 -242 -212 -257c-82 -73 -210 -156 -314 -166
c-80 2 -134 56 -142 173l-2 31c11 155 110 390 243 409c66 -4 109 -55 109 -121v-7z" />
    <glyph glyph-name="r" unicode="r" horiz-adv-x="449" 
d="M40 -37c-2 0 -4 0 -8 2v-1c-17 7 -22 19 -22 38c0 65 9 132 9 198c7 114 -3 372 42 389c20 -6 23 -43 25 -72l2 -29c0 -81 -7 -161 -11 -241c1 0 3 -1 4 -1c38 113 139 392 251 392h9c52 -11 78 -62 78 -127c0 -12 -2 -25 -6 -31c-16 5 -12 21 -16 41l-3 16
c-6 31 -27 56 -53 59c-118 -14 -244 -474 -276 -610c-2 -12 -11 -22 -25 -23z" />
    <glyph glyph-name="d" unicode="d" horiz-adv-x="558" 
d="M399 -538l8 -13l1 -2l12 -22l-7 -5c-76 82 -98 243 -111 363l-4 80c-3 63 -7 138 -7 209c0 42 0 62 2 106c-48 -86 -118 -198 -199 -198c-82 0 -101 100 -101 177c0 79 16 153 38 231c36 115 108 278 223 278c15 -2 29 -7 44 -17l19 -20c17 217 105 1097 284 1097
c71 0 74 -115 74 -168c0 -356 -218 -1033 -340 -1291v2c-4 -87 -6 -175 -6 -262c0 -72 0 -145 5 -217c6 -102 20 -231 64 -325zM346 448l5 -2c101 259 274 828 274 1119c0 37 2 98 -28 98h-4l-7 -4v1c-145 -140 -223 -970 -240 -1212zM252 616h-1
c-117 -28 -203 -312 -203 -468c0 -37 8 -100 50 -100c75 0 163 188 193 259l7 8c3 92 10 197 17 288l-31 12h1c-8 2 -14 3 -21 3c-2 0 -7 -2 -12 -2z" />
    <glyph glyph-name="s" unicode="s" horiz-adv-x="486" 
d="M217 33c-9 -9 -17 -21 -23 -32l-4 -5v1l-13 -20c42 -162 85 -338 85 -549c0 -175 -77 -419 -249 -419c-102 0 -157 96 -167 241c1 243 157 547 276 720l-8 29c-41 150 -85 329 -86 496c6 134 53 270 178 270c61 -3 98 -66 107 -137v-7c0 -25 0 -72 -15 -86
c-15 28 -10 27 -13 39l-13 44c-14 47 -40 77 -74 77c-81 0 -116 -116 -116 -202c0 -162 37 -305 81 -464c123 153 307 310 354 311l20 -2c-36 -25 -171 -128 -320 -305zM-106 -747c5 -89 38 -178 118 -182c138 0 197 210 197 345c0 181 -33 347 -73 501
c-102 -166 -242 -452 -242 -664z" />
    <glyph glyph-name="z" unicode="z" horiz-adv-x="392" 
d="M3 420c37 99 115 148 206 148c63 0 126 -47 126 -153c0 -147 -117 -243 -227 -334l-34 -29c74 -67 123 -161 155 -259c15 7 32 13 40 16v-1l17 7c23 9 52 12 86 13c14 0 31 -5 50 -13l-2 -9c-21 0 -26 3 -31 3c-2 0 -4 -1 -8 -1h-9c-43 -6 -90 -26 -133 -47
c35 -107 44 -259 44 -348c0 -66 -5 -133 -12 -204c-30 -213 -129 -567 -340 -567c-115 0 -154 123 -161 226l-2 28c3 314 190 732 412 871c-34 107 -88 198 -166 253c-11 8 -15 20 -15 33c0 12 4 22 12 27h-1l28 26c58 49 119 103 167 150c34 38 72 89 75 152
c0 69 -31 91 -70 91c-70 0 -130 -37 -170 -105h1c-12 -25 -31 -59 -43 -84c-7 10 -10 19 -10 28c0 26 11 71 15 82zM-70 -1298h13c2 0 2 1 4 1c165 32 248 340 272 518v-1c7 66 11 129 11 191c0 90 -7 187 -31 286l-8 33c-204 -144 -376 -535 -376 -824
c0 -116 36 -204 115 -204z" />
    <glyph glyph-name="e" unicode="e" horiz-adv-x="510" 
d="M134 107c97 0 215 85 290 150l33 35c25 33 87 94 98 94l5 9c2 -2 2 -6 2 -9c0 -30 -91 -135 -115 -162v-1c-81 -77 -209 -174 -315 -174c-46 0 -90 20 -118 70c-19 34 -23 83 -25 119c1 167 100 402 243 420c38 -2 105 -18 105 -106c0 -149 -206 -232 -267 -232
c-7 0 -16 2 -24 6c-4 -30 -8 -59 -9 -87c6 -72 27 -132 97 -132zM240 592h-5c-81 -11 -149 -136 -180 -232c62 12 213 119 227 199c-4 24 -27 33 -42 33z" />
    <glyph glyph-name="f" unicode="f" horiz-adv-x="333" 
d="M521 1335l-5 3c-3 5 -4 26 -4 43c0 7 1 15 1 22v20c0 71 -8 148 -73 150c-182 -24 -276 -597 -301 -793l13 5c72 23 134 42 219 42c29 0 60 -4 60 -19c0 -17 -66 -27 -104 -31c-52 -5 -130 -34 -169 -43l-29 -9c-42 -348 -65 -701 -65 -1055c0 -62 0 -124 2 -186
c2 -104 3 -239 33 -338v1l9 -20l-9 -6l-5 5h1c-44 30 -60 283 -65 355c-6 98 -9 216 -9 322c0 290 23 603 54 905c-44 -17 -83 -36 -119 -59c-9 0 -22 19 -22 32c0 38 96 69 148 86c28 238 129 845 354 876c93 -4 130 -91 130 -167c0 -7 -1 -17 -2 -24
c-1 -27 -21 -113 -43 -117z" />
    <glyph glyph-name="g" unicode="g" horiz-adv-x="536" 
d="M396 652c7 17 16 20 26 20c12 0 29 -16 29 -40c-17 -159 -26 -320 -38 -480l-9 -118l-19 -257c31 23 58 39 87 53c15 7 67 26 99 30l3 -10c-98 -36 -124 -59 -182 -109h1l-10 -8c-27 -352 -60 -713 -150 -1040c-32 -116 -98 -305 -214 -314c-85 5 -129 96 -129 219
c0 372 222 898 439 1127c6 103 14 205 22 308l10 134c6 88 11 179 20 266c-3 1 -4 1 -6 3c-52 -124 -195 -453 -322 -453c-77 0 -78 140 -78 149c0 106 23 201 73 285c47 79 127 161 243 161c25 0 49 -5 70 -16c4 10 9 20 12 30zM-52 -1498c12 -39 33 -62 68 -64
c203 33 289 990 310 1234c-201 -251 -390 -734 -390 -1070c0 -35 3 -68 12 -100zM62 50c70 1 213 306 290 490c-17 5 -31 8 -44 8c-150 0 -273 -207 -273 -405c0 -53 7 -93 27 -93z" />
    <glyph glyph-name="h" unicode="h" horiz-adv-x="433" 
d="M313 533c-1 14 -3 42 -14 58c-55 -5 -115 -218 -132 -271c-38 -120 -68 -240 -102 -356c-4 -15 -9 -19 -23 -19c-20 0 -28 24 -28 34c7 305 21 698 42 998c17 181 39 386 77 554c19 84 66 244 152 244c5 0 13 -2 15 -8c-5 -9 -13 -23 -17 -27v1l-11 -14
c-101 -164 -144 -557 -161 -760c-22 -258 -32 -526 -41 -781c1 0 1 -2 4 -2c24 92 51 184 84 268c23 59 62 164 115 187l-1 -2c5 4 18 7 22 7c54 0 61 -85 61 -141s-4 -119 -9 -174l-3 -34c-5 -60 -10 -127 -10 -188c0 -54 -1 -134 37 -181v1c4 -4 5 -12 5 -16
c-5 0 -12 1 -15 4h1c-57 42 -59 168 -59 241c0 48 6 96 6 144l2 40c2 44 5 91 5 137c0 19 0 37 -2 56z" />
    <glyph glyph-name="i" unicode="i" horiz-adv-x="207" 
d="M18 141v1c-2 25 -3 51 -3 78c0 77 14 374 48 374c10 0 42 -13 42 -28c-26 -132 -37 -287 -38 -425l4 -74c4 -26 7 -48 18 -72l-1 1l14 -20c-5 -5 -7 -5 -13 -5c-52 0 -66 124 -71 170zM140 897c-5 -21 -11 -48 -26 -51c-11 7 -14 29 -14 46v11c0 15 10 112 39 112
c3 0 8 -2 15 -6l-2 1c2 -3 7 -10 7 -12v-1l10 -5c-9 -24 -18 -51 -24 -75z" />
    <glyph glyph-name="j" unicode="j" horiz-adv-x="207" 
d="M61 560c19 -1 27 -77 27 -127v-38c-3 -159 -9 -321 -18 -478c13 0 25 6 51 6c20 0 48 -1 63 -5l-1 -10c-7 0 -19 -2 -32 -3l-17 -2h1l-38 -6c-8 -2 -22 -8 -29 -11c-21 -369 -96 -1413 -360 -1413c-118 10 -152 188 -152 311c3 128 12 246 35 368c58 286 190 623 422 742
c8 166 16 336 19 505v16c0 45 4 146 29 145zM-396 -1219l3 -43c4 -76 34 -193 100 -202c218 25 287 1028 304 1320c-283 -204 -396 -689 -407 -1075zM73 951l-2 4c0 10 14 116 34 116c18 0 20 -19 40 -24c-55 -128 -40 -140 -57 -150c-13 2 -17 21 -17 38c0 4 2 8 2 11v5z
" />
    <glyph glyph-name="k" unicode="k" horiz-adv-x="519" 
d="M226 1682v-5l-9 -22c-69 -224 -94 -535 -111 -784l-4 -51c-18 -273 -31 -553 -37 -832c1 0 3 -1 4 -1c61 225 210 653 374 696l6 -8l-31 -26c-9 -7 -16 -13 -26 -25v-1c-97 -105 -170 -301 -220 -452c44 -42 94 -65 145 -65c22 0 42 3 63 12l-4 -5c0 1 55 37 68 37
c5 -8 5 -10 5 -11c0 -21 -36 -53 -50 -65c-28 -17 -55 -26 -82 -29c-60 0 -116 13 -169 59c-35 -115 -70 -252 -85 -372c-1 -11 -10 -23 -20 -24c-10 0 -19 6 -21 13l1 -1c-7 12 -8 28 -8 45c0 333 18 739 37 1065c14 194 32 412 59 605l22 114c9 46 41 150 87 150
c2 0 3 0 9 -5c0 0 -1 -8 -3 -12z" />
    <glyph glyph-name="l" unicode="l" horiz-adv-x="266" 
d="M374 1880c60 -3 91 -63 97 -146v-51c-21 -352 -230 -994 -416 -1296c-8 -110 -13 -218 -13 -327c0 -104 6 -204 17 -306v1c19 -113 43 -261 136 -311h-1c8 -4 34 -7 72 -16v-9c-8 -1 -16 -2 -27 -2c-142 0 -192 198 -214 330c-20 119 -25 246 -25 367c0 146 8 294 21 437
c20 236 157 1329 353 1329zM416 1686v31c0 39 -7 95 -43 97c-21 -1 -55 -67 -65 -89c-134 -307 -220 -909 -249 -1254l5 -2c92 199 320 787 352 1217z" />
    <glyph glyph-name="m" unicode="m" horiz-adv-x="785" 
d="M363 234c3 44 8 91 12 135l8 87c4 42 3 87 4 130c0 11 0 22 -2 33l-4 24c-3 4 -3 7 -5 12c-64 -26 -154 -303 -172 -362c-46 -133 -89 -317 -137 -444c-8 -13 -17 -24 -35 -24c-14 5 -22 19 -22 36c0 167 14 366 28 535c2 28 14 178 43 183c15 -8 18 -47 18 -83
c0 -46 -4 -95 -5 -106c-10 -112 -18 -228 -24 -341c1 0 4 -1 5 -1l37 130c38 133 81 267 133 388c26 55 75 153 129 153c64 0 64 -102 64 -154c0 -44 -3 -91 -7 -133l-10 -95c-4 -41 -10 -85 -10 -124c0 -12 2 -26 3 -43c27 40 42 68 58 102l16 35c8 14 18 32 18 36l18 36
h-2c31 65 81 172 137 172c44 0 46 -64 46 -96c0 -22 0 -43 -2 -62l-13 -115c-12 -86 -23 -173 -23 -262c0 -54 3 -127 45 -163h-1l11 -6c2 -2 4 -3 4 -5s-3 -4 -10 -6l-13 6c-57 31 -67 136 -67 206c0 57 6 118 11 175l4 44l12 131v23c0 8 1 17 1 26c0 16 -1 23 -3 37l-2 15
c-36 -9 -77 -102 -102 -162l-17 -32l1 1c-18 -43 -42 -95 -62 -130s-41 -72 -81 -72c-35 6 -35 63 -35 92v38z" />
    <glyph glyph-name="n" unicode="n" horiz-adv-x="444" 
d="M331 102c0 -37 2 -71 18 -103c0 -13 13 0 13 -24c-56 0 -63 116 -63 162c0 65 12 141 12 201c6 51 7 104 7 158c0 32 -3 83 -31 87c-44 -2 -97 -162 -113 -213c-12 -37 -24 -81 -37 -122l-7 -25c-20 -65 -39 -133 -57 -182v1c-5 -12 -15 -20 -26 -20c-17 0 -27 15 -27 35
c1 173 13 344 25 517v9c1 32 5 126 36 126c20 0 25 -35 25 -61c0 -11 0 -22 -1 -28l-15 -208c-4 -53 -7 -102 -10 -154c1 0 4 -1 5 -1l40 136c28 81 88 249 161 249h8c55 -7 69 -75 69 -140c0 -58 -5 -117 -12 -174c0 -5 -2 -12 -2 -17l-1 -15c0 -4 -2 -10 -2 -14
c-6 -59 -13 -121 -15 -180z" />
    <glyph glyph-name="o" unicode="o" 
d="M297 305v1c5 39 9 79 9 120c0 31 -8 148 -66 163c-85 -3 -109 -121 -109 -205v-18c0 -10 19 -123 23 -133c-25 5 -47 110 -51 133c-3 18 -3 37 -3 54c0 114 46 218 138 218c90 -6 113 -135 113 -230c0 -104 -54 -439 -227 -457c-109 3 -133 169 -133 261
c0 68 10 135 31 194c7 19 40 85 66 85c12 0 12 -7 12 -16c0 -22 -14 -58 -23 -82l-3 -10c-27 -53 -32 -128 -32 -189c0 -30 9 -178 75 -182c99 13 158 189 180 293z" />
    <glyph glyph-name="p" unicode="p" horiz-adv-x="555" 
d="M114 -26c-39 -296 -64 -578 -85 -873l-10 -139c-3 -11 -11 -22 -22 -27h-7c-15 1 -26 18 -26 36c14 501 46 1006 66 1507v7c0 3 1 5 1 8v4c2 41 6 120 36 124c17 -6 23 -45 23 -79c0 -26 -4 -50 -4 -64v-4c0 -1 1 -2 1 -3l-23 -468c1 0 3 -1 4 -1c27 167 54 326 99 479
c35 110 101 272 205 289c78 -3 120 -54 120 -183c-11 -211 -122 -469 -309 -482h-30c-8 0 -14 0 -20 1c-8 -52 -14 -95 -19 -132zM415 713h1c-10 4 -18 6 -27 6c-3 0 -6 0 -9 -1c-129 -67 -206 -365 -241 -582h39c171 35 271 249 274 453c0 43 -1 103 -37 124z" />
    <glyph glyph-name="q" unicode="q" horiz-adv-x="525" 
d="M190 -166c53 -16 95 -43 133 -80c17 226 41 460 61 682l4 45l-4 2c-58 -128 -183 -388 -300 -401c-65 3 -95 75 -95 154c0 48 6 97 18 141c26 100 96 268 186 275c49 -3 94 -44 94 -117v-19c-13 16 -21 28 -24 35l-2 5c-13 20 -26 37 -50 37c-38 0 -65 -39 -83 -72h1
c-1 -3 -2 -2 -4 -5c-47 -79 -82 -189 -82 -290c0 -36 3 -76 33 -76c66 0 156 164 188 224c30 58 59 118 86 177l11 27c18 44 44 107 66 107c23 0 31 -28 31 -41l-10 -98c-29 -282 -55 -576 -77 -862c71 -132 98 -284 112 -428v1c8 -59 9 -117 9 -175c0 -64 -5 -128 -15 -192
c-10 -45 -30 -148 -89 -148c-89 0 -88 208 -88 228l-3 102c0 218 9 433 24 645c-33 47 -86 82 -136 109zM349 -1047l2 -39c1 -31 9 -66 20 -103v1l7 -14c3 -1 4 -1 8 -1h3c23 10 42 80 47 109c12 64 15 134 15 199c0 37 -1 75 -3 114l-2 37c-10 117 -31 237 -80 371
c-12 -193 -22 -382 -22 -560c0 -38 3 -76 5 -114z" />
    <glyph glyph-name="t" unicode="t" horiz-adv-x="263" 
d="M220 1503v-1c-21 -95 -37 -197 -51 -299c255 12 522 17 744 20h8c31 0 195 -4 195 -19c0 -20 -50 -27 -199 -29l-250 -8c-165 -5 -338 -11 -505 -20c-72 -505 -109 -1051 -109 -1558c0 -77 1 -154 5 -231c0 -31 15 -313 96 -340c1 0 4 -1 20 -8l-30 -6
c-76 0 -104 178 -115 251c-16 157 -22 306 -22 463c0 375 34 928 99 1426c-185 -10 -358 -22 -524 -43h-17c-2 0 -4 -1 -7 -1c-20 0 -44 5 -49 19c0 26 42 38 69 41c167 21 341 30 534 40c15 103 32 206 51 300c13 66 48 169 102 169l-14 -41c-14 -41 -22 -77 -29 -113
c-1 -4 -2 -9 -2 -12z" />
    <glyph glyph-name="u" unicode="u" horiz-adv-x="575" 
d="M374 605l10 11h10c15 -3 32 -25 32 -44c0 -1 -1 -3 -1 -7c-25 -125 -40 -280 -40 -409c0 -25 2 -51 18 -82l7 -7c49 11 136 160 164 214c5 11 47 107 62 125c0 -1 1 -17 1 -19c1 -24 -19 -78 -29 -110l-4 -13c0 -2 -2 -7 -2 -9c-30 -74 -110 -238 -182 -238
c-78 8 -80 158 -80 239v8c0 3 1 5 1 8l1 38c-1 0 -2 1 -3 1c-39 -115 -122 -342 -225 -342c-90 21 -105 148 -105 239c0 30 1 61 4 91l3 31c9 94 27 258 70 258c9 0 20 -20 20 -37c0 -35 -14 -90 -14 -106c-14 -82 -28 -172 -28 -267v-7c0 -37 0 -129 38 -137
c51 2 99 103 128 162c1 4 5 10 7 14c50 128 93 263 137 395z" />
    <glyph glyph-name="v" unicode="v" horiz-adv-x="442" 
d="M374 579v1c-30 -87 -49 -180 -78 -267l1 1c-22 -84 -46 -171 -73 -252c-15 -46 -48 -127 -94 -137c-101 4 -115 205 -115 325c0 105 7 357 46 357c17 0 26 -22 27 -38c0 -8 0 -22 -2 -31v1c-11 -102 -17 -208 -17 -313c0 -63 6 -230 55 -236c22 25 45 74 54 99
c17 45 32 97 46 144l16 53l17 66c25 81 52 170 84 246c17 39 61 125 113 125l-23 -25c-24 -34 -42 -78 -57 -119z" />
    <glyph glyph-name="w" unicode="w" horiz-adv-x="703" 
d="M331 403v-2c-50 -139 -68 -288 -119 -427c-17 -47 -49 -116 -94 -128c-110 0 -107 183 -107 282c0 24 0 48 1 73c2 66 23 442 80 442c5 -5 14 -20 14 -36c0 -41 -11 -102 -11 -123c-19 -120 -29 -242 -29 -370c0 -20 1 -41 2 -59c1 -30 6 -140 37 -143c22 3 49 72 57 94
c24 67 43 144 61 220v-2c2 0 6 17 6 21l12 47c24 94 52 216 107 216c33 0 47 -37 50 -72l1 -230l3 -59c2 -51 4 -142 46 -144c20 21 39 67 47 91c15 45 26 96 38 143l18 69c1 8 4 18 6 26l6 25c18 76 39 153 64 225c13 38 37 90 62 112l16 11l8 -8l-11 -12v1
c-21 -33 -37 -77 -48 -118c-19 -73 -38 -148 -53 -222l-11 -54c-15 -75 -34 -156 -52 -220l-5 -13c-17 -45 -37 -112 -83 -112c-86 0 -100 164 -100 263v168c0 20 -1 45 -2 62l-9 -21c-1 -4 -6 -13 -8 -16z" />
    <glyph glyph-name="x" unicode="x" horiz-adv-x="528" 
d="M444 635c0 -3 2 -5 2 -7v-6c-1 -18 -7 -27 -18 -36c-104 -85 -200 -211 -283 -330c18 -63 55 -182 119 -185c58 1 132 83 174 134c53 77 116 174 168 251c0 -88 -140 -282 -148 -297c-49 -65 -118 -146 -197 -151c-77 2 -124 114 -150 200c-55 -83 -130 -215 -132 -316
c0 -12 2 -37 2 -49c-21 17 -23 50 -23 68c0 118 78 263 139 355c-27 101 -61 244 -61 324c0 14 4 43 18 43c32 0 52 -220 77 -315c80 119 178 243 278 329c6 4 12 9 19 9c8 0 14 -5 16 -21z" />
    <glyph glyph-name="y" unicode="y" horiz-adv-x="715" 
d="M146 -46l8 5c-12 -6 -24 -8 -33 -8c-100 0 -108 169 -108 230c0 48 2 101 8 148v6c0 39 37 324 76 327c1 -6 3 -23 3 -47c0 -57 -10 -150 -16 -217c0 -8 -3 -17 -3 -25c-9 -62 -8 -105 -11 -141c0 -1 1 -4 1 -5c-1 -23 -1 -39 -1 -66c0 -42 4 -141 48 -141h6
c58 25 111 132 138 188c47 96 79 200 119 296l40 106v-1c6 13 14 19 26 19c14 0 29 -19 29 -37v-5c-10 -157 -17 -320 -23 -475c75 94 154 177 232 225l7 4c14 9 45 32 89 40c-12 -8 -53 -41 -70 -52l-14 -9c-90 -70 -172 -168 -246 -275c0 -221 -22 -515 -38 -752
c-27 -271 -93 -858 -290 -970c-25 -14 -55 -17 -85 -18c-109 12 -160 134 -160 284c0 30 1 64 4 95c50 477 275 996 515 1347c3 121 8 253 14 374l-3 1c-31 -79 -62 -157 -97 -234c-34 -73 -89 -180 -165 -217zM394 -54l-6 2c-221 -355 -425 -805 -458 -1274
c-3 -25 -4 -50 -4 -75c0 -142 40 -225 111 -234c215 16 294 652 323 937c17 211 26 440 34 644z" />
    <glyph glyph-name="zero" unicode="0" horiz-adv-x="756" 
d="M564 1510c33 -148 42 -287 42 -440c0 -57 0 -115 -3 -171c-15 -298 -113 -893 -383 -915c-130 7 -192 168 -221 303c-21 127 -31 247 -31 372c0 85 4 172 12 262c22 250 111 816 332 908v-1c8 3 31 10 49 10c13 0 26 -3 30 -12c-8 -13 -51 -40 -67 -49l-5 -2l3 1
c-192 -154 -263 -584 -289 -856c-9 -90 -12 -176 -12 -262c0 -113 10 -233 30 -347c24 -101 79 -246 173 -260c233 18 319 609 335 847c5 69 5 142 5 208c0 128 -11 261 -31 389c-19 96 -50 220 -130 269h1l-16 7l3 8c102 0 152 -173 173 -269z" />
    <glyph glyph-name="one" unicode="1" horiz-adv-x="473" 
d="M1 1222l11 17c96 160 181 383 232 579c9 22 16 29 34 29c17 -10 22 -22 22 -42c-33 -505 -71 -1010 -124 -1511c0 -21 -21 -289 -49 -310v15c0 3 1 6 1 11v18c0 7 -1 15 -1 24c0 88 14 226 14 244l35 489c21 264 40 527 56 792l-4 2c-47 -134 -105 -282 -177 -394
c-13 -20 -65 -88 -97 -88c-7 0 -12 1 -16 9c0 21 23 58 45 90z" />
    <glyph glyph-name="two" unicode="2" horiz-adv-x="635" 
d="M298 1841h2c8 1 16 2 23 2c134 0 192 -174 192 -303v-29c0 -10 0 -19 -1 -29c-38 -432 -324 -1057 -550 -1386l4 -5c77 32 156 43 240 43c66 -3 155 -16 208 -77v1l3 -6c2 -15 21 -39 21 -47c0 -5 -1 -7 -3 -7c-4 0 -10 9 -20 24l-15 17c-54 42 -128 53 -187 53
c-115 0 -228 -34 -332 -104c-4 -2 -6 -4 -12 -4c-9 0 -18 11 -21 22c0 11 4 22 9 29c207 265 554 980 602 1446v21c0 94 -23 269 -141 269c-101 0 -172 -139 -206 -241c-8 -37 -56 -207 -78 -248c-10 13 -12 30 -12 48c0 68 26 191 38 225v-1c43 124 123 264 236 287z" />
    <glyph glyph-name="three" unicode="3" horiz-adv-x="692" 
d="M484 1621c-12 75 -37 144 -107 146c-119 -3 -169 -142 -250 -244c-5 9 -8 18 -8 27c1 53 67 169 97 203c43 49 104 86 165 86c124 -6 165 -166 165 -302c0 -193 -82 -414 -219 -526c143 -79 219 -240 219 -423c0 -224 -87 -467 -252 -572c-37 -21 -71 -32 -108 -32
c-151 0 -217 172 -217 314c0 39 2 78 12 122c4 21 41 186 66 232l10 -3c-52 -232 -54 -252 -54 -325c0 -143 59 -269 170 -284c198 7 322 308 322 538c0 202 -92 339 -244 390l-14 9c-6 10 -7 15 -8 22c0 17 9 32 19 38c163 87 243 284 243 509c0 25 -1 50 -7 75z" />
    <glyph glyph-name="four" unicode="4" horiz-adv-x="778" 
d="M581 1800c-21 -325 -49 -670 -77 -994c81 -16 135 -31 145 -65l-2 -5c0 -6 -2 -11 -16 -11c-26 0 -88 15 -132 20c-13 -149 -28 -303 -44 -452c-2 -48 -33 -296 -40 -309c-7 6 -7 12 -7 24c0 197 35 492 52 741l-33 4c-27 0 -51 5 -72 5c-121 0 -238 -27 -364 -67
c-23 0 -31 24 -31 39v11c3 11 6 18 12 24v-1c158 202 457 772 557 1051c3 9 7 15 14 20h-1c4 3 8 4 13 4c13 0 26 -16 26 -39zM75 806l-20 -35c97 26 158 44 294 44c35 0 69 -1 116 -4c20 266 40 558 56 826c-3 1 -5 2 -5 2c-109 -260 -299 -618 -441 -833z" />
    <glyph glyph-name="five" unicode="5" horiz-adv-x="792" 
d="M244 1740l-77 -459l-22 -136c-7 -44 -14 -72 -18 -109c66 65 144 119 219 128c50 -1 95 -8 141 -42c112 -89 147 -273 147 -420c0 -299 -140 -689 -413 -728c-182 5 -247 143 -247 319c0 46 3 91 13 100l9 -6c-3 -6 -3 -17 -3 -31c0 -37 5 -86 7 -115
c18 -126 97 -222 197 -222h16c3 0 4 1 6 1c250 46 366 387 366 669c0 116 -30 290 -126 378c-37 26 -76 32 -113 33c-91 -15 -179 -99 -240 -178c-6 -6 -15 -10 -21 -10c-10 0 -19 7 -22 16v-1c-2 5 -4 9 -4 14s2 7 2 10l14 99c7 52 17 104 24 155l97 583c4 17 14 30 26 31
h9c63 -29 127 -41 188 -41c67 0 105 6 177 52l52 30c0 -42 -65 -102 -84 -115c-48 -25 -98 -36 -147 -36c-55 0 -115 10 -173 31z" />
    <glyph glyph-name="six" unicode="6" horiz-adv-x="675" 
d="M437 1840c17 0 35 -5 44 -14c-7 -9 -31 -19 -46 -26l-18 -8l1 1c-201 -132 -306 -600 -349 -861c-25 -151 -39 -297 -39 -445c0 -38 1 -77 3 -116c2 -44 24 -322 151 -336c176 18 272 425 292 600c6 58 11 112 11 167v30c0 10 0 20 -1 31l-4 51c-10 76 -38 198 -120 198
c-112 0 -195 -235 -227 -352l-7 -41c-11 -63 -22 -90 -24 -90s-3 7 -3 19c0 16 13 96 13 126c28 143 121 384 252 384c144 0 166 -263 166 -361c0 -52 -4 -114 -10 -166c-30 -232 -145 -637 -339 -658c-135 4 -180 180 -196 314l-6 84c-3 37 -3 80 -3 117
c0 151 15 301 37 454c43 243 183 898 422 898z" />
    <glyph glyph-name="seven" unicode="7" horiz-adv-x="647" 
d="M584 1799l-4 -15c-115 -282 -225 -572 -325 -862c3 0 7 -1 11 -1h54c30 0 102 -1 102 -27c0 -29 -77 -30 -104 -30l-85 -4c-96 -284 -197 -572 -217 -886c-6 0 -16 32 -16 71c0 36 3 75 4 96c31 246 102 486 178 717c-25 -1 -51 -1 -73 -1h-32c-26 0 -54 1 -54 10
c0 10 5 18 5 25l2 9c0 11 3 13 3 29c54 -7 114 -8 169 -8c92 275 196 556 302 821c-58 -17 -111 -22 -160 -22c-73 0 -153 10 -227 31c-13 0 -102 41 -102 75c0 12 11 16 28 16c26 0 64 -12 82 -18l10 -3c72 -22 145 -31 218 -31c66 0 132 9 194 43l10 4c18 0 28 -17 28 -33
c0 -1 -1 -3 -1 -6z" />
    <glyph glyph-name="eight" unicode="8" horiz-adv-x="618" 
d="M271 1824h3c26 0 100 -12 109 -35c0 -8 -6 -8 -10 -8h-7c-4 0 -10 1 -18 1h-20c-101 0 -187 -87 -187 -216c5 -154 55 -259 153 -424c108 146 188 302 201 504v31c-3 64 -23 135 -101 178l4 8c52 -13 66 -35 83 -60l3 -7c28 -46 40 -94 40 -146
c-3 -231 -91 -385 -206 -546l13 -26h-1c114 -203 161 -348 161 -570c0 -34 -4 -69 -4 -107c-17 -208 -124 -384 -293 -411c-3 0 -6 -1 -8 -1h-18c-139 0 -241 139 -241 331c0 326 144 531 300 734c9 11 18 27 28 39c-31 61 -73 123 -104 188c-38 88 -61 184 -66 279
c2 127 84 247 186 264zM-21 388c-1 -17 -1 -34 -1 -51c0 -189 69 -294 194 -294c189 0 266 218 266 434c0 230 -39 368 -151 567v-1c-3 5 -4 4 -8 9l-19 -25c-140 -185 -260 -364 -281 -639z" />
    <glyph glyph-name="nine" unicode="9" horiz-adv-x="669" 
d="M477 874h-1c-44 -242 -190 -884 -429 -884c-17 0 -38 6 -47 15c5 8 19 12 33 18l31 14l-1 -1c234 147 356 748 391 1055l-4 2c-57 -142 -178 -337 -311 -354c-19 1 -49 5 -68 14c-83 50 -106 192 -106 289c0 174 100 785 361 803c128 -12 176 -186 191 -319l2 -56l3 -103
c0 -164 -16 -325 -45 -493zM461 1227l7 35v-1c2 30 2 61 2 91c0 40 -2 80 -4 121l-2 41c-13 98 -50 262 -141 270c-189 -13 -295 -477 -310 -664c-2 -27 -3 -53 -3 -78c0 -130 36 -251 129 -254c151 17 307 328 322 439z" />
    <glyph glyph-name="exclam" unicode="!" horiz-adv-x="375" 
d="M231 1567c-23 -350 -40 -698 -64 -1050c0 -28 -26 -436 -47 -495c-12 0 -12 2 -12 10c0 3 1 7 1 14v27c0 13 -1 29 -1 46c1 138 13 368 14 393l2 53c15 328 30 671 51 999c2 33 12 96 35 106c16 -5 21 -42 21 -74v-29zM100 -182c-15 0 -26 16 -26 39c0 33 20 61 42 61
c14 0 25 -16 25 -39c0 -33 -21 -61 -41 -61z" />
    <glyph glyph-name="quotedbl" unicode="&#x22;" horiz-adv-x="196" 
d="M-76 1491l-4 2c-4 4 -5 10 -5 17c0 16 7 36 7 48l2 14c9 38 17 80 19 127c6 2 21 2 23 2s14 0 22 -5c-3 -31 -32 -205 -64 -205zM34 1491l-5 1c-4 3 -4 9 -4 16c0 17 7 36 7 50l4 24c6 35 16 71 17 117c6 2 21 2 23 2c4 0 14 0 21 -4c-2 -31 -31 -206 -63 -206z" />
    <glyph glyph-name="numbersign" unicode="#" horiz-adv-x="768" 
d="M619 468c0 -19 -17 -25 -28 -25c-62 0 -124 5 -184 5h-7l-4 -47c0 -4 0 -11 -1 -20v1c-4 -61 -14 -225 -36 -225c-8 10 -13 70 -13 126c0 67 5 135 5 148v21h-114c-1 -20 -6 -40 -6 -60c0 -28 -22 -233 -35 -246c-12 17 -16 66 -16 120c0 109 6 164 6 187h-28
c-42 0 -167 4 -192 25c-1 24 137 33 178 33h26c4 0 9 1 14 1h5l8 123h-24c-45 0 -171 4 -193 24c0 27 133 33 176 34h10c10 1 24 1 34 1l7 95c0 10 2 25 2 35l9 133c3 24 9 28 16 32h10c1 -2 4 -3 8 -3l8 -11c12 -16 12 -35 13 -43c0 -4 0 -9 -1 -12v-6c0 -6 -1 -11 -1 -15
l-17 -203h112l9 136c1 32 5 71 6 103l3 30c0 15 10 32 19 33c6 0 15 -4 18 -7l7 -10h-1c10 -17 12 -39 12 -53l-20 -231c11 0 24 -1 38 -1h123c12 -2 29 -6 39 -20v1c10 -10 12 -27 12 -30c0 -16 -18 -22 -28 -22h-19c-2 0 -3 1 -5 1l-164 4c-2 -38 -7 -76 -9 -115h30
c15 0 33 1 50 1c61 0 121 -3 124 -25c5 -3 3 -7 10 -17zM362 631l-113 3c-4 -40 -5 -80 -8 -121c36 1 78 1 114 1c1 36 4 83 7 117z" />
    <glyph glyph-name="dollar" unicode="$" horiz-adv-x="870" 
d="M380 943l13 -7c132 -89 281 -212 281 -432c0 -244 -149 -449 -348 -465c-8 -83 -16 -155 -25 -183l-11 1c0 1 1 4 1 8c0 17 -2 46 -2 79c0 26 1 57 2 90v5c-172 9 -312 157 -312 376c0 39 8 158 30 186c0 -22 -5 -176 -5 -193c25 -180 132 -314 289 -319
c4 168 14 369 15 386l19 430c-130 87 -263 199 -263 406c0 224 121 424 303 460c0 14 5 164 40 185c17 -9 21 -57 21 -95c0 -7 -1 -15 -1 -22l-2 -64c156 -11 289 -154 289 -368c0 -36 -4 -72 -18 -88c-21 36 -18 71 -28 110l-16 63c-40 113 -126 207 -232 215
c-14 -250 -30 -510 -40 -764zM381 870l-5 -4c-6 -129 -13 -258 -22 -386c-1 -43 -13 -232 -25 -389c170 22 297 185 297 396s-128 303 -245 383zM119 1354v-1c-1 -11 -1 -21 -1 -31c0 -179 99 -267 211 -344c10 235 22 490 35 724c-138 -37 -228 -181 -245 -348z" />
    <glyph glyph-name="percent" unicode="%" horiz-adv-x="767" 
d="M551 1491c14 28 44 77 72 77c3 -5 5 -12 5 -18c0 -25 -16 -66 -25 -89c-154 -311 -306 -622 -455 -937c-40 -85 -185 -380 -223 -403c1 51 149 358 185 434c1 4 6 10 7 14l46 100c125 271 258 553 388 822zM210 1552l-2 3c5 -9 8 -18 8 -26c0 -4 -3 -11 -4 -17
c-15 -39 -24 -85 -24 -131c0 -26 8 -68 35 -68c34 0 46 79 49 111v40c0 36 -10 60 -30 77h1c-5 4 -10 10 -10 13c0 8 6 10 15 10c10 0 24 -5 26 -7h-1c33 -24 42 -81 44 -131c-1 -74 -29 -177 -101 -177s-76 84 -82 151c2 38 19 168 59 168c5 0 12 -5 17 -16zM304 408h-2
c-15 -40 -23 -86 -23 -132v-5c0 -2 1 -5 1 -8c0 -13 2 -55 33 -55c46 4 50 108 50 143c0 26 -7 53 -18 72l-11 11c-5 3 -8 8 -11 14c0 7 6 11 15 11c53 0 67 -77 69 -138c-2 -72 -31 -163 -92 -176c-56 2 -91 48 -91 127c0 4 2 9 2 13v11c2 37 17 168 56 168
c15 0 24 -25 24 -40c0 -8 -1 -10 -2 -16z" />
    <glyph glyph-name="ampersand" unicode="&#x26;" horiz-adv-x="1074" 
d="M421 630l17 -40l61 -168c52 -144 113 -305 157 -463l4 -22c113 129 179 315 197 500v83c0 53 1 127 2 147c29 -31 44 -177 47 -229c-6 -219 -95 -438 -226 -575c22 -96 44 -191 44 -292c0 -16 -1 -34 -3 -49c-2 -11 -17 -89 -31 -89c0 29 9 58 13 86v19c0 7 1 14 1 21
c0 77 -31 202 -51 277c-83 -71 -191 -118 -294 -120c-152 11 -293 159 -293 383c0 260 132 431 295 565c-51 139 -105 295 -105 451c9 220 115 400 306 409c103 -4 210 -84 260 -200c15 -47 20 -84 20 -142c-21 -238 -196 -385 -352 -498zM632 -89l-7 31
c-49 163 -114 336 -181 503l-61 155c-146 -121 -264 -264 -264 -503c0 -183 119 -301 244 -304c99 0 190 44 269 118zM399 696l31 23l38 30c136 102 322 229 322 447c0 173 -123 256 -230 260c-161 -3 -249 -140 -258 -339c3 -138 39 -252 91 -402z" />
    <glyph glyph-name="quotesingle" unicode="'" horiz-adv-x="86" 
d="M-76 1491l-4 2c-4 4 -5 10 -5 17c0 16 7 36 7 48l2 14c9 39 15 78 19 123c0 6 20 6 23 6c4 0 20 0 22 -7c-3 -29 -32 -203 -64 -203z" />
    <glyph glyph-name="parenleft" unicode="(" horiz-adv-x="518" 
d="M65 1055c47 305 145 734 340 939c16 16 83 67 117 67c7 0 14 -5 18 -10c-3 -19 -40 -51 -67 -78l-16 -16v1l-16 -15c-256 -269 -359 -940 -359 -1409c0 -243 25 -572 186 -775c16 -20 32 -27 48 -54c-9 -4 -10 -4 -12 -4c-30 0 -97 83 -104 94c-95 153 -146 388 -160 571
l-5 90c-2 37 -3 80 -3 116c0 160 11 314 33 483z" />
    <glyph glyph-name="parenright" unicode=")" horiz-adv-x="702" 
d="M522 1241c0 227 -21 507 -140 712h-1c-17 36 -88 96 -88 113c0 2 0 3 1 4c29 0 104 -82 111 -93c98 -153 146 -388 160 -571l3 -51c3 -50 3 -109 4 -160c0 -158 -12 -316 -33 -477c-45 -292 -155 -747 -340 -939c-20 -20 -83 -68 -117 -68c-8 0 -15 5 -18 10
c4 19 52 61 80 89l21 21v-1c254 266 357 944 357 1411z" />
    <glyph glyph-name="asterisk" unicode="*" horiz-adv-x="502" 
d="M304 1212c-3 -2 -6 -2 -8 -2c-14 0 -34 34 -44 50l-6 8c-28 48 -61 107 -88 159l-47 -76v1c-16 -27 -36 -58 -53 -83l-4 -4v1c-10 -16 -34 -49 -50 -49c-8 0 -8 3 -8 7c0 16 15 49 26 70c0 1 2 5 2 6c21 39 49 87 75 128l19 30l-32 12c-41 15 -79 33 -117 50l-9 4
c-16 8 -48 24 -48 41c0 9 9 14 24 14c56 0 135 -41 204 -64c0 59 5 289 34 292c17 -2 19 -52 19 -75v-10c1 -22 1 -54 1 -79c0 -44 -1 -82 -3 -121c64 23 144 57 193 57c10 0 19 -6 22 -11c0 -21 -34 -37 -54 -44v1c-46 -23 -98 -44 -147 -62l79 -166l2 -9v2l3 -9
c7 -17 18 -40 18 -56c0 -6 0 -10 -3 -13z" />
    <glyph glyph-name="plus" unicode="+" horiz-adv-x="603" 
d="M234 694l6 -7c44 2 87 3 131 3c29 0 57 -3 57 -21c0 -29 -121 -32 -157 -34l-40 -2c-2 -70 -1 -234 -30 -239c-13 0 -21 35 -21 67c0 18 3 34 3 51v19c0 20 2 40 2 60v32h-191v61c62 0 130 1 192 3c6 181 6 247 36 247c6 0 14 -3 23 -8l-4 -90c-2 -48 -6 -93 -7 -142z
" />
    <glyph glyph-name="comma" unicode="," horiz-adv-x="211" 
d="M53 -172c-7 0 -11 7 -11 16c0 15 10 37 10 49c6 25 15 108 27 108c7 0 12 -2 15 -3h20c-4 -31 -30 -170 -61 -170z" />
    <glyph glyph-name="hyphen" unicode="-" horiz-adv-x="572" 
d="M446 635h-11c-11 -2 -49 -2 -53 -2h-41c-96 0 -210 -2 -305 -4v12c0 18 0 39 8 49c24 0 200 -2 200 -2c15 0 24 -2 33 -2s192 -7 192 -40c0 -9 -20 -11 -23 -11z" />
    <glyph glyph-name="period" unicode="." horiz-adv-x="210" 
d="M69 -119c-15 0 -25 18 -25 41c0 28 23 58 42 58c15 0 25 -17 25 -40c0 -32 -23 -59 -42 -59z" />
    <glyph glyph-name="slash" unicode="/" horiz-adv-x="624" 
d="M441 1147v1l14 45c40 129 141 482 177 525c0 -55 -71 -307 -113 -459l-31 -111v1c-110 -398 -231 -796 -341 -1194c-11 -40 -35 -113 -63 -123c-7 4 -11 14 -11 25c-1 26 9 69 17 95c96 340 205 709 307 1049z" />
    <glyph glyph-name="colon" unicode=":" horiz-adv-x="218" 
d="M80 266c15 0 26 -17 26 -39c0 -29 -21 -61 -40 -61c-15 0 -28 17 -28 39c0 33 23 61 42 61zM117 555c-4 -28 -22 -51 -41 -51c-15 0 -25 18 -25 41c0 28 22 58 40 58c16 0 26 -17 26 -40v-8z" />
    <glyph glyph-name="semicolon" unicode=";" horiz-adv-x="219" 
d="M79 307c3 0 17 0 21 -7c-8 -44 -34 -163 -60 -163c-9 0 -11 10 -11 18c0 12 9 31 9 43c0 0 -1 1 -1 2l9 47c6 31 12 63 19 63h5c7 -3 8 -3 9 -3zM76 504c-15 0 -25 18 -25 41c0 28 22 58 40 58c16 0 26 -17 26 -40c0 -32 -21 -59 -41 -59z" />
    <glyph glyph-name="less" unicode="&#x3c;" horiz-adv-x="516" 
d="M24 578l-5 -1c-5 7 -8 12 -9 18c0 10 2 23 11 27h-1l49 37c92 70 205 153 275 236c8 10 30 39 47 39c4 -6 4 -10 4 -15c0 -52 -83 -121 -124 -155c-62 -52 -135 -107 -198 -153c93 -36 282 -136 302 -239l-11 -3c-42 89 -257 195 -340 209z" />
    <glyph glyph-name="greater" unicode="&#x3e;" horiz-adv-x="519" 
d="M66 358l-4 1c-4 3 -5 7 -5 13c0 19 22 51 29 60c26 34 65 67 98 96c59 51 134 107 198 153c-94 35 -284 137 -303 239l10 3c46 -89 264 -200 340 -209c10 -1 14 -11 14 -23c0 -9 -2 -16 -3 -17c-82 -58 -161 -119 -240 -187c-31 -26 -60 -55 -92 -95l-3 -3v1
c-11 -13 -28 -32 -39 -32z" />
    <glyph glyph-name="question" unicode="?" horiz-adv-x="651" 
d="M507 1249c1 21 1 41 1 60c0 213 -108 302 -237 305c-128 -7 -209 -176 -224 -325c0 -36 -7 -151 -15 -172c-33 2 -38 134 -38 169c11 188 123 390 283 403c155 -6 281 -137 281 -377c0 -206 -86 -344 -180 -485c-94 -140 -158 -256 -200 -444c-5 -21 -34 -244 -34 -249
l-5 -6s-5 19 -5 67c0 73 11 176 14 194c35 201 101 322 201 479l56 88v-1c55 88 93 174 102 294zM119 -119c-16 0 -27 17 -27 39c0 29 24 60 42 60c16 0 27 -16 27 -38c0 -33 -22 -61 -42 -61z" />
    <glyph glyph-name="at" unicode="@" horiz-adv-x="937" 
d="M396 -149c21 0 45 2 74 10c0 -24 -53 -34 -75 -36c-218 0 -348 186 -348 413c0 317 162 641 428 667c201 -3 361 -175 361 -479c0 -166 -97 -465 -249 -465c-74 0 -93 67 -93 174c0 81 14 168 31 243c-1 1 -1 2 -5 3l-59 -112c-35 -63 -77 -140 -123 -140
c-50 0 -72 63 -72 117c0 104 51 316 141 316c9 0 21 -5 33 -11c11 -11 42 -47 42 -78l-25 22h1c-12 10 -22 16 -36 16c-61 0 -111 -165 -111 -262c0 -11 -1 -51 21 -51c26 0 87 108 105 142l45 87c26 51 59 109 86 155l12 6c10 0 27 -14 27 -40c0 -2 -1 -4 -1 -5l-5 -32
l-6 -21c-27 -113 -58 -241 -58 -371c0 -44 -2 -93 46 -93c20 0 42 7 60 21c107 80 151 286 151 421c0 255 -163 374 -312 377c-242 -27 -402 -304 -402 -604c0 -13 -1 -26 1 -39l5 -46c33 -187 162 -305 310 -305z" />
    <glyph glyph-name="bracketleft" unicode="[" horiz-adv-x="406" 
d="M44 -287l187 15c4 -4 8 -20 8 -29c0 -8 -4 -34 -12 -41h-31c-74 0 -175 1 -177 40l-1 22c-1 22 -6 57 -6 99c0 151 12 392 20 520l3 49c0 10 1 23 2 27c20 512 41 1031 69 1544c2 46 11 130 29 153c20 24 142 27 208 27c5 -4 8 -19 8 -29c0 -7 -2 -33 -12 -40h-13
c-57 0 -116 -1 -168 12c3 -27 4 -61 4 -86v-34c-29 -520 -50 -1033 -80 -1541c-1 -13 -2 -33 -2 -46l-5 -120c-7 -171 -16 -420 -31 -542z" />
    <glyph glyph-name="bracketright" unicode="]" horiz-adv-x="499" 
d="M317 2084l-185 -15c-8 6 -10 26 -10 35c1 10 3 29 13 35h35c69 0 169 -3 171 -39l-10 3c3 -3 18 -65 18 -140c0 -186 -25 -444 -25 -572l-12 -307c-16 -415 -33 -832 -56 -1246c-3 -48 -12 -134 -30 -153v1c-15 -25 -123 -28 -192 -28h-16c-5 4 -7 19 -7 29v9
c0 10 4 25 12 31h13c55 0 114 0 166 -12c-3 28 -4 58 -4 85c0 7 1 14 1 20v15c31 520 57 1030 78 1541l3 46c12 141 13 499 37 662z" />
    <glyph glyph-name="backslash" unicode="\" horiz-adv-x="628" 
d="M738 -166h-4c-28 10 -59 81 -75 120c-80 199 -160 399 -241 598l-242 606c-40 92 -202 515 -202 565c37 -58 183 -400 234 -528l19 -48v1l33 -79c154 -371 310 -745 457 -1117c11 -27 29 -78 29 -101c0 -8 -2 -15 -8 -17z" />
    <glyph glyph-name="asciicircum" unicode="^" horiz-adv-x="464" 
d="M-34 1250l2 -2c85 131 158 338 227 509v-1c2 12 11 15 21 17c11 -4 15 -13 15 -25c1 -64 19 -160 31 -222c17 -93 57 -282 114 -339c0 -3 2 -3 5 -3l-1 1c5 0 8 -4 8 -13c-93 0 -166 362 -187 494c-38 -98 -84 -212 -125 -303c-35 -76 -88 -195 -128 -195
c-4 0 -12 6 -12 13c0 18 30 50 30 69z" />
    <glyph glyph-name="underscore" unicode="_" horiz-adv-x="761" 
d="M554 -88h-1c38 -3 116 -21 116 -31c-13 -11 -23 -12 -37 -12h-86c-18 -1 -41 -1 -59 -1c-134 0 -290 -1 -423 -3c-9 2 -9 16 -9 28v5c0 8 3 24 11 27h146c119 0 241 -1 342 -13z" />
    <glyph glyph-name="grave" unicode="`" horiz-adv-x="187" 
d="M71 884l9 -14c16 -26 29 -53 39 -71l2 -9v2c4 -12 13 -30 13 -46c0 -6 -3 -12 -10 -16h-5c-13 0 -22 14 -30 26l-9 14v-1c-39 47 -78 95 -115 143c-2 3 -6 11 -6 18c0 21 16 37 30 38c15 -7 73 -71 82 -84z" />
    <glyph glyph-name="braceleft" unicode="{" horiz-adv-x="464" 
d="M169 1429l5 31c21 116 52 280 84 390c14 49 36 109 64 148c12 17 61 62 88 62c7 0 11 -2 16 -10c0 -10 -26 -43 -40 -63v1l-20 -31c-15 -15 -45 -109 -51 -128c-31 -102 -54 -209 -72 -313c-2 -13 -8 -30 -8 -41c-28 -126 -56 -287 -90 -405c-22 -66 -55 -144 -111 -186
c78 -97 83 -238 83 -353c0 -39 0 -75 -1 -114l-4 -102c-1 -31 -1 -62 -1 -93c0 -127 12 -292 72 -405c4 -9 23 -29 41 -50l55 -68c-37 7 -114 89 -121 97c-94 146 -94 347 -94 517v40c0 13 1 27 1 41v139c0 112 -15 265 -100 331c-13 8 -13 14 -13 33c3 16 12 26 25 29
c56 14 95 102 115 164c32 103 53 210 72 312c1 9 4 18 5 27z" />
    <glyph glyph-name="braceright" unicode="}" horiz-adv-x="620" 
d="M443 1111l1 -5c9 -81 30 -161 98 -205c4 -3 9 -8 9 -24s-9 -31 -25 -35c-56 -16 -97 -103 -117 -164c-34 -107 -55 -225 -75 -333l-6 -38l-9 -51l-13 -73c-27 -150 -63 -315 -128 -413c-12 -17 -58 -62 -86 -62c-6 0 -13 3 -17 9c2 7 21 35 36 59v-1l23 36
c9 11 45 100 54 128c35 111 54 242 77 347l7 32c22 121 49 268 84 380c22 69 55 141 112 186c-83 99 -83 244 -83 357c0 37 2 72 2 110l1 102c0 35 3 70 3 105c0 177 -5 355 -178 512c43 -7 117 -83 129 -99c96 -132 95 -351 95 -516v-102c0 -12 -1 -23 -1 -34v-33
c0 -57 1 -117 7 -175z" />
    <glyph glyph-name="bar" unicode="|" horiz-adv-x="364" 
d="M210 1973c-5 -519 4 -1036 1 -1555c-2 -42 1 -396 -7 -598c-2 -68 -6 -120 -12 -137h-10c-12 69 -17 508 -16 671l-1 53c-9 490 -11 1064 -11 1557c0 11 0 28 1 40c2 51 9 113 27 124c23 -7 30 -103 28 -155z" />
    <glyph glyph-name="asciitilde" unicode="~" horiz-adv-x="591" 
d="M385 540h1c57 0 65 73 104 73c14 0 18 -14 18 -25c0 -74 -81 -115 -128 -115c-50 6 -92 31 -137 60h1c-2 1 -4 4 -6 5l-11 7c-28 18 -62 40 -94 40s-51 -16 -80 -67c-14 -24 -29 -52 -38 -58c-5 5 -7 10 -7 16c0 28 36 100 42 110c23 36 51 56 90 56c42 0 84 -24 124 -47
l10 -7c35 -22 74 -45 111 -48z" />
    <glyph glyph-name="equal" unicode="=" horiz-adv-x="682" 
d="M96 772l-48 -2c-4 3 -3 14 -3 22c0 2 0 4 1 6c-1 5 -1 13 -1 18c0 9 0 15 7 15l313 4c13 0 32 2 52 2c25 0 52 -5 58 -19c0 -35 -179 -40 -308 -44zM41 550c0 5 0 12 3 18l317 4c9 0 30 2 50 2c27 0 52 -5 59 -19c0 -35 -179 -40 -307 -44l-120 -4s-3 6 -3 10s1 9 1 13
v20z" />
    <glyph glyph-name="germandbls" unicode="&#xdf;" horiz-adv-x="624" 
d="M529 1369c-14 -222 -189 -471 -307 -623l15 -13h-2c96 -73 178 -147 234 -265c28 -76 47 -170 47 -246c-6 -180 -63 -381 -225 -399c-20 1 -41 5 -56 9l-20 10c-13 6 -36 21 -43 33l8 6c6 -5 17 -12 22 -14l33 -16l-1 1c14 -3 26 -5 39 -5c4 0 13 1 17 2
c147 27 186 212 186 378c0 229 -142 369 -267 461c-18 13 -42 31 -42 57c0 4 2 10 6 15h-1c1 3 3 6 3 6l12 16c104 141 276 389 292 585c-2 11 -2 34 -2 42c-8 82 -53 193 -128 196c-182 -19 -225 -503 -232 -673l-7 -166c-5 -114 -7 -228 -13 -342l-16 -345c0 -2 1 -5 1 -7
v-7c-2 -48 -11 -189 -34 -203c-19 10 -24 74 -24 133c0 38 1 71 2 83l17 383l20 469c8 222 68 717 287 737c124 -7 179 -158 179 -283v-15z" />
    <glyph glyph-name="section" unicode="&#xa7;" horiz-adv-x="662" 
d="M531 234v-1c6 -33 11 -59 11 -91c0 -199 -121 -380 -286 -380c-142 0 -240 125 -250 298v9c0 26 6 103 16 133l19 1c-1 -13 -3 -84 -3 -119c0 -151 93 -268 215 -268c139 0 239 145 239 318v18c-51 328 -419 281 -419 634c0 83 20 187 80 251c-40 58 -64 126 -64 196
c0 196 101 383 271 384c126 -4 228 -122 228 -301c0 -28 -6 -59 -21 -77c-21 19 -26 63 -30 99l-8 45c-29 91 -94 167 -171 170c-137 0 -220 -146 -220 -314c0 -153 106 -222 177 -274l9 -7v1c1 -1 5 -2 5 -3h-1l10 -10v1c102 -72 212 -166 212 -337
c0 -99 -34 -191 -70 -263c24 -36 40 -75 51 -113zM314 898l-13 9c-36 24 -84 60 -121 100l-11 -28l-5 -7h1l-14 -34c-16 -48 -23 -120 -25 -173c37 -211 230 -282 329 -386c30 66 58 164 58 201c0 170 -108 254 -199 318z" />
    <glyph glyph-name="Euro" unicode="&#x20ac;" horiz-adv-x="932" 
d="M419 48h-1c-2 0 -4 -1 -9 -1h-7c-52 0 -93 15 -139 57c-31 16 -86 134 -99 176c-25 82 -36 169 -41 253l-4 62l-142 -7c16 15 12 25 12 30l1 11c0 1 -1 3 -1 4v5c0 11 3 24 8 24c40 0 82 1 124 2c0 33 2 70 6 106l3 53l-134 -6s1 23 1 30v9c0 11 3 33 7 34
c42 1 96 2 137 2c38 267 175 699 428 716c120 -7 154 -152 160 -260c0 -22 -1 -45 -3 -70c-3 -29 -24 -145 -54 -156v12c-1 15 5 66 8 102l3 39v60c-10 99 -40 201 -122 206c-221 -13 -341 -416 -378 -648l117 3c12 0 34 2 50 2c24 0 47 -5 55 -20c0 -30 -72 -39 -99 -41
c-39 0 -94 -9 -134 -11c-6 -46 -8 -104 -10 -161c61 0 113 4 179 4c23 0 47 -5 54 -20c0 -38 -111 -45 -194 -49l-39 -2c0 -273 82 -493 260 -499c136 17 220 240 237 392v45c0 36 -2 86 -12 110c29 -19 33 -131 33 -152c-8 -180 -101 -428 -261 -446z" />
    <glyph glyph-name="cent" unicode="&#xa2;" horiz-adv-x="832" 
d="M595 1296l-4 8l-27 55c-11 27 -62 44 -82 44c-19 0 -36 -2 -54 -6c-7 -133 -16 -266 -23 -399l-10 -187c0 -11 -2 -28 -2 -38c-8 -144 -16 -276 -36 -533c105 17 181 145 216 240l16 44l15 -1c-3 -33 -28 -111 -32 -121c-44 -87 -131 -188 -216 -204
c-10 -107 -20 -203 -31 -230l-14 2v31c0 15 -2 54 -2 84c0 36 0 70 2 112c-186 14 -268 238 -268 458c0 251 96 650 327 776c1 27 4 58 6 85l3 47c2 35 13 101 37 114c15 -6 24 -49 24 -83c0 -10 -1 -21 -2 -28l-6 -112c20 4 36 6 55 6c44 0 88 -20 119 -64
c10 -18 33 -74 33 -113c0 -12 -5 -26 -10 -33c-12 0 -22 22 -34 46zM99 816c-7 -53 -10 -104 -10 -153c0 -191 63 -396 224 -423c15 375 33 756 54 1130c-160 -106 -241 -352 -268 -554z" />
    <glyph glyph-name="sterling" unicode="&#xa3;" horiz-adv-x="917" 
d="M237 1136v12c-1 21 -2 40 -2 59c0 158 58 490 267 492c113 -6 175 -139 175 -292c0 -3 -1 -6 -1 -9v-24c0 -43 -32 -204 -60 -245c-9 8 -9 13 -9 21c0 10 2 26 4 43l17 164c0 1 2 9 2 12c0 138 -46 244 -135 258c-152 -12 -216 -251 -216 -419c0 -86 9 -163 9 -247v-38
c0 -3 -1 -5 -1 -10c48 0 103 4 154 4c25 0 47 -7 57 -23c0 -50 -145 -45 -168 -47l-44 -5c-11 -215 -59 -412 -152 -586c0 -1 1 -3 1 -3c42 24 86 34 130 35c70 -8 121 -39 183 -84l23 -19c43 -36 94 -78 137 -78c28 0 32 -1 92 60l9 -8c-47 -74 -77 -88 -111 -88
c-50 0 -103 40 -145 71c-61 50 -122 85 -193 90c-91 -1 -156 -64 -223 -131l-5 -2c-5 1 -18 11 -18 11l-1 12c0 10 4 24 8 33c131 204 208 407 221 684c-9 0 -18 -1 -30 -2l-111 -5c-27 0 -38 21 -38 41c0 18 9 36 23 36l157 3c0 70 -2 148 -6 224z" />
    <glyph glyph-name="yen" unicode="&#xa5;" horiz-adv-x="993" 
d="M398 570l170 3c44 236 55 480 66 724c-1 0 -3 1 -3 1c-62 -222 -181 -490 -390 -509c-149 5 -180 192 -180 357c0 66 3 138 10 206c6 66 39 312 73 353c7 -6 7 -9 7 -11c0 -1 -1 -3 -1 -10v-11c0 -4 1 -9 1 -14c0 -181 -35 -349 -35 -491v-36c0 -18 0 -36 2 -55l3 -40
c9 -89 37 -184 120 -187c250 28 366 537 407 795c4 11 15 24 32 25c10 -1 18 -7 22 -19c0 -2 1 -7 2 -8l-19 -319l-3 -74c-9 -213 -23 -437 -66 -676c45 0 63 4 127 4c24 0 48 -6 55 -20c0 -39 -104 -40 -170 -45l-25 -2c-44 -201 -131 -456 -288 -543
c-29 -14 -53 -22 -80 -22c-135 0 -200 165 -200 303c0 11 0 23 1 34c2 20 19 159 38 203l10 -2c0 -3 0 -10 -2 -17c-4 -29 -15 -127 -20 -194c0 -128 54 -286 171 -286c20 0 43 7 65 19c137 79 217 326 256 502c-52 -2 -113 -6 -165 -8c0 7 2 30 3 35c-1 4 -1 9 -1 13
c0 10 3 22 7 22z" />
    <glyph glyph-name="agrave" unicode="&#xe0;" horiz-adv-x="461" 
d="M322 10c-14 54 -16 110 -16 166c0 80 7 173 17 262h-2c-1 0 -1 0 -2 1c-64 -121 -109 -227 -205 -365l-1 -2v1c-17 -27 -44 -67 -75 -69c-47 0 -59 62 -59 108c0 140 103 448 209 448c17 0 68 -19 68 -73v-9c-7 0 -19 4 -25 8l-10 5c-5 2 -12 3 -17 3
c-94 -11 -183 -285 -183 -392c0 -31 12 -32 12 -32c24 -1 99 127 132 185l4 7v-1l8 13c57 98 106 209 165 301v-1c1 3 7 8 11 9c19 -3 23 -21 23 -35v-6c-23 -124 -41 -271 -41 -398c0 -23 3 -47 3 -71c0 -35 4 -98 32 -121c4 -4 6 -8 6 -11c0 -2 -1 -4 -2 -5
c-30 0 -46 50 -52 74zM274 761l5 -13c4 -10 10 -23 10 -39c0 -10 -5 -17 -15 -17c-12 0 -19 10 -25 21l-5 6v-1l-16 23l-29 36c-26 31 -54 67 -80 98v-1c-1 1 -5 9 -5 17c0 21 15 40 31 40c8 0 67 -65 74 -81l-1 1c24 -35 44 -66 56 -90z" />
    <glyph glyph-name="aacute" unicode="&#xe1;" horiz-adv-x="461" 
d="M322 10c-14 54 -16 110 -16 166c0 80 7 173 17 262h-2c-1 0 -1 0 -2 1c-64 -121 -109 -227 -205 -365l-1 -2v1c-17 -27 -44 -67 -75 -69c-47 0 -59 62 -59 108c0 140 103 448 209 448c17 0 68 -19 68 -73v-9c-7 0 -19 4 -25 8l-10 5c-5 2 -12 3 -17 3
c-94 -11 -183 -285 -183 -392c0 -31 12 -32 12 -32c24 -1 99 127 132 185l4 7v-1l8 13c57 98 106 209 165 301v-1c1 3 7 8 11 9c19 -3 23 -21 23 -35v-6c-23 -124 -41 -271 -41 -398c0 -23 3 -47 3 -71c0 -35 4 -98 32 -121c4 -4 6 -8 6 -11c0 -2 -1 -4 -2 -5
c-30 0 -46 50 -52 74zM216 734l-9 -11l-7 -9c-7 -10 -13 -18 -24 -18c-9 0 -14 3 -14 13c0 16 17 48 23 57v-1c38 68 90 128 142 187c0 -38 27 -43 27 -59c-33 -34 -63 -71 -92 -105z" />
    <glyph glyph-name="acircumflex" unicode="&#xe2;" horiz-adv-x="461" 
d="M322 10c-14 54 -16 110 -16 166c0 80 7 173 17 262h-2c-1 0 -1 0 -2 1c-64 -121 -109 -227 -205 -365l-1 -2v1c-17 -27 -44 -67 -75 -69c-47 0 -59 62 -59 108c0 140 103 448 209 448c17 0 68 -19 68 -73v-9c-7 0 -19 4 -25 8l-10 5c-5 2 -12 3 -17 3
c-94 -11 -183 -285 -183 -392c0 -31 12 -32 12 -32c24 -1 99 127 132 185l4 7v-1l8 13c57 98 106 209 165 301v-1c1 3 7 8 11 9c19 -3 23 -21 23 -35v-6c-23 -124 -41 -271 -41 -398c0 -23 3 -47 3 -71c0 -35 4 -98 32 -121c4 -4 6 -8 6 -11c0 -2 -1 -4 -2 -5
c-30 0 -46 50 -52 74zM338 698l-4 -5c-8 -3 -59 129 -74 172v-1l-17 44l-37 -92c-27 -67 -56 -132 -74 -132c-12 0 -15 10 -15 22c0 8 2 17 4 22c38 82 75 165 110 248c4 9 13 12 23 14c19 -11 20 -59 32 -90l9 -31c14 -49 43 -142 43 -167v-4z" />
    <glyph glyph-name="atilde" unicode="&#xe3;" horiz-adv-x="461" 
d="M322 10c-14 54 -16 110 -16 166c0 80 7 173 17 262h-2c-1 0 -1 0 -2 1c-64 -121 -109 -227 -205 -365l-1 -2v1c-17 -27 -44 -67 -75 -69c-47 0 -59 62 -59 108c0 140 103 448 209 448c17 0 68 -19 68 -73v-9c-7 0 -19 4 -25 8l-10 5c-5 2 -12 3 -17 3
c-94 -11 -183 -285 -183 -392c0 -31 12 -32 12 -32c24 -1 99 127 132 185l4 7v-1l8 13c57 98 106 209 165 301v-1c1 3 7 8 11 9c19 -3 23 -21 23 -35v-6c-23 -124 -41 -271 -41 -398c0 -23 3 -47 3 -71c0 -35 4 -98 32 -121c4 -4 6 -8 6 -11c0 -2 -1 -4 -2 -5
c-30 0 -46 50 -52 74zM189 798v-1c18 -9 32 -18 43 -25l10 -7c20 -16 44 -31 68 -34c20 0 32 14 42 32h-1c4 9 16 21 29 21c3 -3 5 -9 5 -15c0 -59 -55 -85 -79 -85c-30 3 -51 21 -76 38l-19 13h1c-18 12 -40 31 -61 31c-23 0 -29 -10 -46 -45l-4 -7h1l-20 -41
c-8 8 -8 11 -8 15c0 19 21 67 26 77c12 25 31 40 57 40c12 0 21 -3 32 -7z" />
    <glyph glyph-name="adieresis" unicode="&#xe4;" horiz-adv-x="461" 
d="M322 10c-14 54 -16 110 -16 166c0 80 7 173 17 262h-2c-1 0 -1 0 -2 1c-64 -121 -109 -227 -205 -365l-1 -2v1c-17 -27 -44 -67 -75 -69c-47 0 -59 62 -59 108c0 140 103 448 209 448c17 0 68 -19 68 -73v-9c-7 0 -19 4 -25 8l-10 5c-5 2 -12 3 -17 3
c-94 -11 -183 -285 -183 -392c0 -31 12 -32 12 -32c24 -1 99 127 132 185l4 7v-1l8 13c57 98 106 209 165 301v-1c1 3 7 8 11 9c19 -3 23 -21 23 -35v-6c-23 -124 -41 -271 -41 -398c0 -23 3 -47 3 -71c0 -35 4 -98 32 -121c4 -4 6 -8 6 -11c0 -2 -1 -4 -2 -5
c-30 0 -46 50 -52 74zM302 698l-6 -2c-20 0 -33 17 -33 40c0 27 23 56 48 56c18 0 32 -16 32 -38c0 -26 -17 -53 -42 -57zM224 752c-1 -25 -24 -56 -49 -56c-19 0 -32 17 -32 40c0 27 26 53 47 56c19 0 34 -17 34 -40z" />
    <glyph glyph-name="aring" unicode="&#xe5;" horiz-adv-x="461" 
d="M322 10c-14 54 -16 110 -16 166c0 80 7 173 17 262h-2c-1 0 -1 0 -2 1c-64 -121 -109 -227 -205 -365l-1 -2v1c-17 -27 -44 -67 -75 -69c-47 0 -59 62 -59 108c0 140 103 448 209 448c17 0 68 -19 68 -73v-9c-7 0 -19 4 -25 8l-10 5c-5 2 -12 3 -17 3
c-94 -11 -183 -285 -183 -392c0 -31 12 -32 12 -32c24 -1 99 127 132 185l4 7v-1l8 13c57 98 106 209 165 301v-1c1 3 7 8 11 9c19 -3 23 -21 23 -35v-6c-23 -124 -41 -271 -41 -398c0 -23 3 -47 3 -71c0 -35 4 -98 32 -121c4 -4 6 -8 6 -11c0 -2 -1 -4 -2 -5
c-30 0 -46 50 -52 74zM341 789c-2 -59 -47 -113 -97 -113c-37 0 -65 31 -65 77c0 58 43 118 96 118c40 0 66 -35 66 -82zM211 766c0 -31 17 -54 40 -54c28 0 58 31 58 68c0 33 -18 54 -44 54h-3c-27 -6 -49 -35 -51 -68z" />
    <glyph glyph-name="ae" unicode="&#xe6;" horiz-adv-x="849" 
d="M376 240v-1c4 -87 38 -132 96 -132c94 0 214 84 288 148l140 150l1 -18c2 -37 -111 -154 -116 -162c-79 -79 -206 -176 -315 -176c-85 0 -159 79 -159 241c0 47 9 122 18 177l-51 -106l-69 -131c-28 -54 -59 -104 -95 -156l-1 -2v1c-17 -27 -44 -67 -75 -69
c-47 0 -59 62 -59 108c0 140 103 448 209 448c18 0 68 -21 68 -73v-9c-7 0 -19 4 -25 8l-10 5c-5 2 -12 3 -17 3c-94 -11 -183 -285 -183 -392c0 -31 12 -32 12 -32c24 -1 99 127 132 185l4 7v-1l8 13c57 98 106 209 165 301v-1c1 3 7 8 11 9c19 -3 23 -13 23 -44
c0 -14 -2 -31 -2 -70c42 91 111 178 197 190c53 -2 104 -35 104 -105c0 -102 -112 -178 -181 -212c-21 -11 -80 -26 -113 -26c-15 0 -16 -42 -16 -64v-12h11zM620 559c0 28 -35 32 -47 33c-82 -11 -152 -142 -184 -244c30 11 68 26 76 30c48 26 155 114 155 181zM330 470
c0 -1 -1 -1 -1 -2c0 0 1 1 1 2z" />
    <glyph glyph-name="ccedilla" unicode="&#xe7;" horiz-adv-x="593" 
d="M187 -211c-17 -40 -50 -89 -93 -89c-35 0 -59 26 -59 62v12l2 9c1 7 6 15 18 19v-17c0 -2 -1 -4 -1 -6v-4c2 -29 16 -42 37 -42c49 0 74 79 74 115c0 30 -13 45 -28 45c-1 0 -2 -1 -5 -1h-4c-7 -2 -17 -6 -21 -10l-12 -5c-9 0 -16 8 -17 16c0 31 26 69 41 103
c-75 14 -120 77 -126 172l-2 31c11 155 110 390 243 409c50 -2 109 -40 109 -121v-7c-1 -21 -9 -86 -34 -89c-8 12 -15 45 -18 68l-2 17v-1c-4 28 -13 62 -51 64c-106 -14 -191 -225 -195 -342c0 -106 33 -139 90 -140c97 3 211 83 289 146l58 57c58 62 166 164 176 171
c5 -10 5 -12 5 -13c0 -50 -197 -243 -213 -257c-78 -70 -185 -147 -286 -163c-4 -6 -8 -14 -10 -20l-23 -43c41 -5 70 -36 70 -83c0 -23 -4 -41 -12 -63z" />
    <glyph glyph-name="egrave" unicode="&#xe8;" horiz-adv-x="495" 
d="M447 223c-81 -77 -209 -174 -315 -174c-46 0 -90 20 -118 70c-19 34 -23 83 -25 119c1 167 100 402 243 420c23 -1 45 -4 67 -21l1 1c21 -19 33 -44 37 -74c-2 -150 -192 -249 -295 -253c-4 -22 -5 -36 -5 -53v-19c6 -72 27 -132 97 -132c95 0 212 84 287 148l36 37
c35 36 94 94 98 94l5 9c2 -2 2 -6 2 -9c0 -30 -91 -135 -115 -162v-1zM282 556c0 11 -4 18 -9 24l-1 1c-12 9 -27 11 -37 11c-83 -11 -151 -141 -183 -245c61 24 230 137 230 209zM273 799h-1c4 -9 16 -37 16 -53c0 -7 -2 -12 -9 -16h-5c-14 0 -18 8 -23 17l-8 11v-1l-16 22
c-22 29 -46 56 -69 85l-38 48v-1c-3 2 -6 11 -6 21c0 25 22 36 30 36c9 0 15 -6 17 -8v3c9 -10 58 -83 62 -91v7c20 -29 39 -57 50 -80z" />
    <glyph glyph-name="eacute" unicode="&#xe9;" horiz-adv-x="495" 
d="M447 223c-81 -77 -209 -174 -315 -174c-46 0 -90 20 -118 70c-19 34 -23 83 -25 119c1 167 100 402 243 420c23 -1 45 -4 67 -21l1 1c21 -19 33 -44 37 -74c-2 -150 -192 -249 -295 -253c-4 -22 -5 -36 -5 -53v-19c6 -72 27 -132 97 -132c95 0 212 84 287 148l36 37
c35 36 94 94 98 94l5 9c2 -2 2 -6 2 -9c0 -30 -91 -135 -115 -162v-1zM282 556c0 11 -4 18 -9 24l-1 1c-12 9 -27 11 -37 11c-83 -11 -151 -141 -183 -245c61 24 230 137 230 209zM182 801h-1c11 23 30 51 50 80v-7c4 8 53 81 62 91v-3c2 2 8 8 17 8c8 0 30 -11 30 -36
c0 -10 -3 -19 -6 -21v1l-38 -48c-23 -29 -48 -55 -69 -85l-16 -22v1l-8 -11c-5 -9 -9 -17 -23 -17h-5c-7 4 -9 9 -9 16c0 16 12 44 16 53z" />
    <glyph glyph-name="ecircumflex" unicode="&#xea;" horiz-adv-x="495" 
d="M232 658c23 -1 45 -4 67 -21l1 1c21 -19 33 -44 37 -74c-2 -150 -192 -249 -295 -253c-4 -22 -5 -36 -5 -53v-19c6 -72 27 -132 97 -132c95 0 212 84 287 148l36 37c35 36 94 94 98 94l5 9c2 -2 2 -6 2 -9c0 -30 -91 -135 -115 -162v-1c-81 -77 -209 -174 -315 -174
c-46 0 -90 20 -118 70c-19 34 -23 83 -25 119c1 167 100 402 243 420zM282 556c0 11 -4 18 -9 24l-1 1c-12 9 -27 11 -37 11c-83 -11 -151 -141 -183 -245c61 24 230 137 230 209zM205 970l23 53c7 15 19 15 22 15c17 -9 18 -39 26 -66l19 -64c15 -51 41 -131 40 -157
c0 -5 0 -8 -3 -11c-5 0 -77 154 -80 188c-3 11 -6 14 -10 27c-25 -63 -70 -162 -87 -202c-5 -12 -13 -21 -25 -21c-13 0 -17 13 -17 22c0 7 1 14 6 22h-1c24 49 44 100 67 150z" />
    <glyph glyph-name="edieresis" unicode="&#xeb;" horiz-adv-x="495" 
d="M232 658c23 -1 45 -4 67 -21l1 1c21 -19 33 -44 37 -74c-2 -150 -192 -249 -295 -253c-4 -22 -5 -36 -5 -53v-19c6 -72 27 -132 97 -132c95 0 212 84 287 148l36 37c35 36 94 94 98 94l5 9c2 -2 2 -6 2 -9c0 -30 -91 -135 -115 -162v-1c-81 -77 -209 -174 -315 -174
c-46 0 -90 20 -118 70c-19 34 -23 83 -25 119c1 167 100 402 243 420zM282 556c0 11 -4 18 -9 24l-1 1c-12 9 -27 11 -37 11c-83 -11 -151 -141 -183 -245c61 24 230 137 230 209zM167 828h1l4 1c19 0 35 -17 35 -40c0 -25 -21 -50 -41 -56h-9c-17 0 -32 16 -32 37
c0 28 20 55 42 58zM286 733h-9c-19 0 -32 17 -32 39c0 28 27 57 49 57c19 0 33 -17 33 -40c0 -25 -23 -51 -41 -56z" />
    <glyph glyph-name="igrave" unicode="&#xec;" horiz-adv-x="207" 
d="M18 142c-2 25 -3 51 -3 78c0 77 14 374 48 374c10 0 42 -13 42 -28c-26 -132 -37 -287 -38 -425l4 -74c4 -26 7 -48 18 -72h-1l4 -8c3 -4 3 -6 3 -7c0 -7 -4 -7 -9 -7c-2 0 -7 0 -9 2h1c-48 28 -55 113 -60 167zM139 696l-6 -2c-12 0 -19 9 -25 20l-5 7v-1l-9 13
s-7 8 -12 13l-103 131l2 -1c-4 2 -6 11 -6 20c0 25 18 37 28 37c11 0 33 -29 55 -57l28 -35l13 -21v1c21 -33 49 -74 49 -111c0 -7 -3 -14 -11 -15z" />
    <glyph glyph-name="iacute" unicode="&#xed;" horiz-adv-x="204" 
d="M18 142c-2 25 -3 51 -3 78c0 77 14 374 48 374c10 0 42 -13 42 -28c-26 -132 -37 -287 -38 -425l4 -74c4 -26 7 -48 18 -72h-1l4 -8c3 -4 3 -6 3 -7c0 -7 -4 -7 -9 -7c-2 0 -7 0 -9 2h1c-48 28 -55 113 -60 167zM156 955l9 -2c8 -15 19 -35 30 -46
c-43 -46 -90 -101 -130 -150c-11 -13 -36 -49 -52 -49c0 0 -13 0 -13 13c0 15 18 48 23 57v-1c38 65 84 120 130 174z" />
    <glyph glyph-name="icircumflex" unicode="&#xee;" horiz-adv-x="204" 
d="M18 142c-2 25 -3 51 -3 78c0 77 14 374 48 374c10 0 42 -13 42 -28c-26 -132 -37 -287 -38 -425l4 -74c4 -26 7 -48 18 -72h-1l4 -8c3 -4 3 -6 3 -7c0 -7 -4 -7 -9 -7c-2 0 -7 0 -9 2h1c-48 28 -55 113 -60 167zM109 883l-11 35l-40 -91c-28 -63 -54 -134 -71 -133
c-12 0 -15 10 -15 21c0 8 2 17 4 23l109 248c4 10 11 14 22 14c18 -8 19 -54 28 -82v1l4 -10c4 -12 52 -155 52 -194c0 -5 0 -9 -4 -13c-10 2 -48 102 -67 154l-7 19v-1z" />
    <glyph glyph-name="idieresis" unicode="&#xef;" horiz-adv-x="189" 
d="M18 142c-2 25 -3 51 -3 78c0 77 14 374 48 374c10 0 42 -13 42 -28c-26 -132 -37 -287 -38 -425l4 -74c4 -26 7 -48 18 -72h-1l4 -8c3 -4 3 -6 3 -7c0 -7 -4 -7 -9 -7c-2 0 -7 0 -9 2h1c-48 28 -55 113 -60 167zM186 760c-1 -26 -23 -56 -49 -56c-19 0 -31 17 -31 40
c0 27 22 56 48 56c20 0 32 -17 32 -40zM23 705v1c-4 -2 -5 -2 -7 -2c-17 0 -29 15 -29 37c0 25 18 59 47 59c19 0 33 -17 33 -40c0 -26 -23 -52 -44 -55z" />
    <glyph glyph-name="ntilde" unicode="&#xf1;" horiz-adv-x="444" 
d="M318 493c0 32 -3 87 -30 90c-44 0 -98 -162 -114 -213c-12 -37 -24 -81 -37 -122l-7 -25c-20 -65 -39 -133 -57 -182v1c-5 -12 -15 -20 -26 -20c-17 0 -27 15 -27 35c1 173 13 344 25 517v9c1 32 5 126 36 126c20 0 25 -35 25 -61c0 -11 0 -22 -1 -28l-15 -208
c-4 -53 -7 -102 -10 -154c1 0 4 -1 5 -1l40 136c28 81 88 249 161 249h8c55 -7 69 -75 69 -140c0 -58 -5 -117 -12 -174c0 -5 -2 -12 -2 -17l-1 -15c-4 -57 -19 -125 -17 -184c0 -41 0 -78 18 -113c0 -13 13 0 13 -24c-56 0 -63 116 -63 162c0 65 12 141 12 201
c6 50 7 102 7 155zM216 823l-8 7l-1 1c-42 27 -44 32 -65 34h-8c-11 -3 -20 -9 -27 -20h1l-34 -73c-9 8 -9 11 -9 16c0 19 21 68 25 76h-1c12 24 35 40 57 40s48 -15 71 -29l3 -2h-2c1 -1 3 -1 4 -1l10 -8h-1c21 -16 45 -31 69 -34c37 0 38 54 69 54c4 -4 6 -11 6 -19
c0 -52 -52 -82 -71 -82c-34 0 -63 25 -88 40z" />
    <glyph glyph-name="ograve" unicode="&#xf2;" 
d="M297 305v1c5 39 9 79 9 120c0 31 -8 148 -66 163c-85 -3 -109 -121 -109 -205v-18c0 -10 19 -123 23 -133c-25 5 -47 110 -51 133c-3 18 -3 37 -3 54c0 114 46 218 138 218c90 -6 113 -135 113 -230c0 -104 -54 -439 -227 -457c-109 3 -133 169 -133 261
c0 68 10 135 31 194c7 19 40 85 66 85c12 0 12 -7 12 -16c0 -22 -14 -58 -23 -82l-3 -10c-27 -53 -32 -128 -32 -189c0 -30 9 -178 75 -182c99 13 158 189 180 293zM202 757l-9 14s-6 7 -6 8l-109 133v-1c-3 2 -5 10 -5 19c0 10 2 20 8 26v-2c8 12 16 14 22 14
c10 0 16 -4 17 -5c10 -10 58 -83 63 -91v7l6 -9c28 -39 59 -80 59 -124c0 -7 -3 -12 -9 -16h-7c-11 0 -21 12 -30 27z" />
    <glyph glyph-name="oslash" unicode="&#xf8;" 
d="M241 589h-1c-86 0 -109 -120 -109 -205v-18c0 -10 19 -123 23 -133c-25 5 -47 110 -51 133c-3 18 -3 37 -3 54c0 114 46 218 138 218c18 0 42 -12 62 -31l17 50c5 19 22 54 41 57c0 -16 -6 -41 -9 -53l-29 -83c25 -54 31 -113 31 -170c0 -104 -54 -439 -227 -457
c-5 0 -13 1 -21 2c-18 -54 -41 -114 -51 -136c-11 0 -11 4 -11 9c-1 9 11 41 22 74l19 60c-81 47 -91 175 -91 252c0 68 10 135 31 194c7 19 40 85 66 85c12 0 12 -7 12 -16c0 -22 -14 -58 -23 -82l-4 -11c0 -2 -2 -5 -2 -6c-21 -57 -29 -120 -29 -182c0 -22 5 -148 59 -179
l21 62c31 92 61 184 94 277v-1l66 200c-10 19 -26 33 -41 36zM147 79l-24 -65c100 26 157 191 174 291c6 35 10 77 10 115c0 23 1 39 -9 92c-49 -144 -101 -289 -151 -433z" />
    <glyph glyph-name="oacute" unicode="&#xf3;" 
d="M341 516c8 -38 10 -71 10 -108c0 -104 -54 -439 -227 -457c-109 3 -133 169 -133 261c0 68 10 135 31 194c7 19 40 85 66 85c12 0 12 -7 12 -16c0 -22 -14 -58 -23 -82l-3 -10c-27 -53 -32 -128 -32 -189c0 -30 9 -178 75 -182c99 13 158 189 180 293c5 38 9 81 9 121
c0 31 -8 148 -66 163c-85 -3 -109 -121 -109 -205v-18c0 -10 19 -123 23 -133c-25 5 -47 110 -51 133c-3 18 -3 37 -3 54c0 114 46 218 138 218c57 -3 88 -58 103 -122zM223 952l18 -29c0 -2 5 -20 22 -20c-42 -45 -91 -101 -132 -149c0 -4 -34 -54 -53 -54
c-9 0 -14 5 -14 13c0 14 10 34 16 47l2 4c39 66 81 116 123 165z" />
    <glyph glyph-name="ocircumflex" unicode="&#xf4;" 
d="M299 507v1c-8 38 -23 78 -59 81c-86 -1 -109 -121 -109 -205v-18c0 -10 19 -123 23 -133c-25 5 -47 110 -51 133c-3 18 -3 37 -3 54c0 114 45 218 138 218c90 -6 113 -135 113 -230c0 -104 -54 -439 -227 -457c-109 3 -133 169 -133 261c0 68 10 135 31 194
c7 19 40 85 66 85c12 0 12 -7 12 -16c0 -22 -14 -58 -23 -82l-4 -11c0 -2 -2 -5 -2 -6c-21 -57 -29 -120 -29 -182c0 -30 9 -178 75 -182c99 13 158 189 180 293c5 38 9 81 9 121c0 26 -2 54 -7 81zM279 731h-2c-11 0 -59 124 -75 172v-1l-15 43c-34 -85 -90 -223 -112 -223
c-12 0 -14 9 -14 19c0 8 1 17 4 27c38 82 74 163 110 246v-1c3 10 12 15 22 15c21 -4 13 -53 29 -82v1l3 -10c4 -12 53 -160 53 -196c0 -5 0 -8 -3 -10z" />
    <glyph glyph-name="otilde" unicode="&#xf5;" 
d="M299 507v1c-8 38 -23 78 -59 81c-86 -1 -109 -121 -109 -205v-18c0 -10 19 -123 23 -133c-25 5 -47 110 -51 133c-3 18 -3 37 -3 54c0 114 45 218 138 218c90 -6 113 -135 113 -230c0 -104 -54 -439 -227 -457c-109 3 -133 169 -133 261c0 68 10 134 31 194
c7 19 40 85 66 85c12 0 12 -7 12 -16c-1 -22 -14 -62 -24 -88l-5 -11c-19 -57 -29 -121 -29 -182c0 -30 9 -178 75 -182c99 13 158 189 180 293c5 38 9 81 9 121c0 26 -2 54 -7 81zM147 824v-1c9 -4 18 -10 28 -16l22 -14h-1c22 -17 47 -34 71 -36c35 0 38 53 67 53
c7 -4 9 -10 9 -17c0 -51 -42 -83 -78 -83c-28 3 -55 19 -78 38l-23 18c0 1 -22 20 -55 26c-19 -1 -31 -13 -44 -43l-22 -41l-10 2c0 22 21 73 24 80c12 24 33 41 57 41c14 0 22 -3 33 -7z" />
    <glyph glyph-name="odieresis" unicode="&#xf6;" 
d="M299 507v1c-8 38 -23 78 -59 81c-86 -1 -109 -121 -109 -205v-18c0 -10 19 -123 23 -133c-25 5 -47 110 -51 133c-3 18 -3 37 -3 54c0 114 45 218 138 218c90 -6 113 -135 113 -230c0 -104 -54 -439 -227 -457c-109 3 -133 169 -133 261c0 68 10 134 31 194
c7 19 40 85 66 85c12 0 12 -7 12 -16c-1 -22 -14 -62 -24 -88l-5 -11c-19 -57 -29 -121 -29 -182c0 -30 9 -178 75 -182c99 13 158 189 180 293c5 38 9 81 9 121c0 26 -2 54 -7 81zM245 722h-4c-20 0 -32 17 -32 40c0 25 19 50 41 56h7c19 0 33 -16 33 -39
c0 -29 -23 -54 -45 -57zM130 818h9c17 0 31 -16 31 -39c0 -28 -24 -54 -46 -57c-22 0 -35 17 -35 40c0 25 20 49 41 56z" />
    <glyph glyph-name="ugrave" unicode="&#xf9;" horiz-adv-x="575" 
d="M235 207v1c52 129 96 266 140 399l9 9h10c15 -3 32 -25 32 -44c0 -1 -1 -3 -1 -7c-25 -125 -40 -280 -40 -409c0 -25 2 -51 18 -82l7 -7c49 11 136 160 164 214c5 11 47 107 62 125c0 -1 1 -17 1 -19c1 -24 -19 -78 -29 -110l-4 -13c0 -2 -2 -7 -2 -9
c-30 -74 -110 -238 -182 -238c-78 8 -80 158 -80 239v8c0 3 1 5 1 8l1 38c-1 0 -2 1 -3 1c-39 -115 -122 -342 -225 -342c-90 21 -105 148 -105 239c0 30 1 61 4 91l3 31c9 94 27 258 70 258c9 0 20 -20 20 -37c0 -35 -14 -90 -14 -106c-14 -82 -28 -172 -28 -267v-6
c0 -35 3 -131 37 -138c52 0 100 102 129 162v-1c1 4 4 8 5 12zM235 752l-1 2l-10 17c-26 34 -56 72 -84 105l-22 26c-2 4 -5 10 -5 17c0 24 12 41 29 41c9 0 16 -3 19 -5l-2 -1c7 -10 58 -80 61 -89v6l17 -23c27 -36 49 -73 50 -109c0 -7 -3 -13 -10 -17h-6
c-11 0 -18 9 -23 19v-1l-10 12h-3z" />
    <glyph glyph-name="uacute" unicode="&#xfa;" horiz-adv-x="575" 
d="M341 272l1 38c-1 0 -2 1 -3 1c-39 -115 -122 -342 -225 -342c-90 21 -105 148 -105 239c0 30 1 61 4 91l3 31c9 94 27 258 70 258c9 0 20 -20 20 -37c0 -35 -14 -90 -14 -106c-14 -82 -28 -172 -28 -267v-6c0 -35 3 -131 37 -138c56 0 108 120 136 176
c51 129 94 264 138 397l9 9h10c15 -3 32 -25 32 -44c0 -1 -1 -3 -1 -7c-25 -125 -40 -280 -40 -409c0 -25 2 -51 18 -82l7 -7c49 11 136 160 164 214c5 11 47 107 62 125c0 -1 1 -17 1 -19c1 -24 -19 -78 -29 -110l-4 -13c0 -2 -2 -7 -2 -9c-30 -74 -110 -238 -182 -238
c-78 8 -80 158 -80 239v8c0 3 1 5 1 8zM252 762v-1c-3 -3 -13 -15 -13 -15l-8 -11c-10 -14 -23 -27 -34 -27c-8 0 -13 5 -13 13c0 16 17 48 23 57v-1c34 61 75 109 114 156l27 30c0 -12 8 -29 14 -33l2 -4c3 -5 12 -13 20 -13c-43 -46 -91 -102 -132 -151z" />
    <glyph glyph-name="ucircumflex" unicode="&#xfb;" horiz-adv-x="575" 
d="M387 250c-2 -30 -2 -58 -2 -95c0 -24 2 -50 18 -81l7 -7c49 11 136 160 164 214c5 11 47 107 62 125c0 -1 1 -17 1 -19c1 -24 -19 -78 -29 -110l-4 -13c0 -2 -2 -7 -2 -9c-30 -74 -110 -238 -182 -238c-78 8 -80 158 -80 239v8c0 3 1 5 1 8l1 38c-1 0 -2 1 -3 1
c-39 -115 -122 -342 -225 -342c-90 21 -105 148 -105 239c0 30 1 61 4 91l3 31c9 94 27 258 70 258c9 0 20 -20 20 -37c0 -35 -14 -90 -14 -106c-14 -82 -28 -172 -28 -267v-6c0 -35 3 -131 37 -138c56 0 108 120 136 176c51 129 94 264 138 397l9 9h10c15 -3 32 -25 32 -44
c0 -1 -1 -3 -1 -7c-20 -99 -34 -206 -38 -315zM256 1014l4 -1c15 -8 14 -36 24 -66l5 -22c3 -25 55 -163 55 -199c0 -1 -1 -8 -1 -11c-30 3 -69 164 -85 190l-9 27l-86 -203c-5 -12 -17 -21 -26 -21c-13 0 -17 10 -17 22c0 7 2 15 7 22h-2c31 64 59 129 87 194l20 46
c10 16 14 20 24 22z" />
    <glyph glyph-name="udieresis" unicode="&#xfc;" horiz-adv-x="575" 
d="M235 207v1c52 129 96 266 140 399l9 9h10c15 -3 32 -25 32 -44c0 -1 -1 -3 -1 -7c-25 -125 -40 -280 -40 -409c0 -25 2 -51 18 -82l7 -7c49 11 137 161 164 214c5 11 47 107 62 125c0 -1 1 -17 1 -19c1 -24 -19 -78 -29 -110l-4 -13c0 -2 -2 -7 -2 -9
c-30 -74 -110 -238 -182 -238c-78 8 -80 158 -80 239v8c0 3 1 5 1 8l1 38c-1 0 -2 1 -3 1c-39 -115 -122 -342 -225 -342c-90 21 -105 148 -105 239c0 30 1 61 4 91l3 31c9 94 27 258 70 258c9 0 20 -20 20 -37c0 -35 -14 -90 -14 -106c-14 -82 -28 -172 -28 -267v-6
c0 -35 3 -131 37 -138c52 0 100 102 129 162v-1c1 4 4 8 5 12zM294 717h-5c-20 0 -33 17 -33 40c0 25 20 49 41 56h8c17 0 33 -16 33 -37c0 -29 -22 -56 -44 -59zM177 813h9c19 0 32 -17 32 -39c0 -29 -24 -54 -45 -57c-22 0 -37 17 -37 40c0 24 22 49 41 56z" />
    <glyph glyph-name="yacute" unicode="&#xfd;" horiz-adv-x="739" 
d="M275 211v-3c30 66 59 143 88 219l70 183v-1c6 13 14 19 26 19c14 0 29 -19 29 -37v-5c-9 -157 -17 -321 -23 -476c97 125 197 230 319 263l5 -8l-49 -28c-103 -67 -197 -176 -277 -293c0 -222 -22 -515 -38 -752c-27 -271 -93 -858 -291 -970c-26 -15 -56 -17 -83 -18
c-110 12 -161 134 -161 284c0 30 1 64 4 95c48 476 275 996 515 1347c4 121 8 253 15 374l-4 1c-31 -79 -61 -157 -97 -234c-38 -80 -105 -220 -190 -220c-100 0 -108 170 -108 230c0 48 3 101 8 148v6c0 39 37 324 76 327c1 -6 3 -23 3 -47c0 -138 -31 -297 -31 -386v-20
c0 -7 1 -13 1 -19v-25c0 -48 5 -145 48 -145h6c58 25 113 134 139 191zM112 -1621c178 101 237 683 260 923c17 212 27 453 35 657c-228 -368 -432 -822 -465 -1285c-3 -25 -4 -50 -4 -75c0 -141 39 -224 112 -234c19 0 41 3 62 14zM447 903v-5c-47 -51 -94 -107 -137 -158
c-7 -10 -25 -38 -42 -38h-7c-3 2 -5 6 -5 11c0 15 18 50 22 58c39 62 77 113 119 161l23 26c0 -24 19 -44 27 -55z" />
    <glyph glyph-name="ydieresis" unicode="&#xff;" horiz-adv-x="739" 
d="M275 211v-3c30 66 59 143 88 219l70 183v-1c6 13 14 19 26 19c14 0 29 -19 29 -37v-5c-9 -157 -17 -321 -23 -476c97 125 197 230 319 263l5 -8l-49 -28c-103 -67 -197 -176 -277 -293c0 -222 -22 -515 -38 -752c-27 -271 -93 -858 -291 -970c-26 -15 -56 -17 -83 -18
c-110 12 -161 134 -161 284c0 30 1 64 4 95c48 476 275 996 515 1347c4 121 8 253 15 374l-4 1c-31 -79 -61 -157 -97 -234c-38 -80 -105 -220 -190 -220c-100 0 -108 170 -108 230c0 48 3 101 8 148v6c0 39 37 324 76 327c1 -6 3 -23 3 -47c0 -138 -31 -297 -31 -386v-20
c0 -7 1 -13 1 -19v-25c0 -48 5 -145 48 -145h6c58 25 113 134 139 191zM112 -1621c178 101 237 683 260 923c17 212 27 453 35 657c-228 -368 -432 -822 -465 -1285c-3 -25 -4 -50 -4 -75c0 -141 39 -224 112 -234c19 0 41 3 62 14zM230 729h-8c-20 0 -33 16 -33 39
c0 30 27 57 50 57c18 0 32 -17 32 -40c0 -25 -22 -49 -41 -56zM348 729h-6c-19 0 -33 16 -33 39c0 36 24 45 47 57c19 0 33 -16 33 -37c0 -27 -17 -54 -41 -59z" />
    <glyph glyph-name="Ccedilla" unicode="&#xc7;" horiz-adv-x="1088" 
d="M1081 1523c1 -19 2 -37 2 -56c0 -39 -38 -223 -86 -242l3 5c0 -4 25 204 25 233c0 161 -66 270 -185 270c-60 0 -114 -15 -167 -40c-415 -221 -651 -1023 -651 -1518c0 -142 18 -282 69 -419c68 -138 173 -221 300 -221c303 0 543 352 543 721c0 34 -3 69 -9 104
c-4 19 -32 104 -36 106l2 8c21 -2 52 -101 54 -109c12 -45 16 -83 16 -129c0 -351 -215 -691 -497 -734l-39 -92c51 0 82 -43 82 -102c0 -68 -45 -198 -131 -198c-34 0 -72 32 -72 80v16c0 6 8 38 19 38v-10c1 0 3 -9 3 -17c0 -40 18 -64 46 -64c56 0 91 92 91 143
c0 29 -6 58 -33 58c-12 0 -31 -8 -41 -16h2l-7 -4c-19 0 -28 10 -28 23v12l11 28c10 26 30 72 43 98h-26c-152 0 -264 75 -341 244c-57 141 -73 284 -73 435c0 365 92 744 256 1083c134 251 340 503 601 526h13c134 0 226 -98 241 -260z" />
    <glyph glyph-name="Egrave" unicode="&#xc8;" horiz-adv-x="1008" 
d="M806 -225c-92 -113 -260 -275 -403 -275c-148 0 -197 202 -215 353l-3 46c-3 42 -5 92 -5 135c0 157 15 318 35 482c-97 -21 -216 -44 -266 -48l-2 8c41 20 173 56 273 81c36 284 92 602 157 864c9 35 17 82 42 133c-66 -16 -150 -35 -217 -48c-11 -2 -25 -4 -36 -4
c-9 0 -53 5 -53 17c11 18 63 34 83 38c212 39 427 95 639 137c134 26 275 53 407 53c9 0 19 0 25 -1c41 -1 144 -8 149 -64c-2 -23 -17 -38 -22 -38l1 8c1 2 1 5 1 8c0 50 -73 53 -112 53c-135 0 -306 -36 -441 -64c-99 -20 -202 -43 -300 -66l-80 -19
c-1 -24 -11 -52 -11 -68l-16 -81c-66 -265 -120 -563 -159 -844c186 43 369 70 549 77c17 0 27 -9 28 -25c-4 -13 -15 -26 -31 -27c-180 -8 -374 -30 -551 -67c-22 -168 -38 -335 -38 -501c0 -55 0 -111 6 -166c10 -108 41 -303 152 -322c138 3 286 133 390 247l145 186
c0 -41 -113 -189 -121 -198zM667 2002c-33 42 -67 84 -102 126l3 -1c-5 2 -7 10 -7 19c0 22 16 37 30 37c7 0 12 -1 12 -1c9 -11 63 -85 67 -94v5c30 -54 66 -81 66 -131c0 -7 -3 -13 -10 -17h-7c-12 0 -17 8 -23 18v-1l-10 14s-1 2 -3 4z" />
    <glyph glyph-name="Eacute" unicode="&#xc9;" horiz-adv-x="1008" 
d="M806 -225c-92 -113 -260 -275 -403 -275c-148 0 -197 202 -215 353l-3 46c-3 42 -5 92 -5 135c0 157 15 318 35 482c-97 -21 -216 -44 -266 -48l-2 8c41 20 173 56 273 81c36 284 92 602 157 864c9 35 17 82 42 133c-66 -16 -150 -35 -217 -48c-11 -2 -25 -4 -36 -4
c-9 0 -53 5 -53 17c11 18 63 34 83 38c212 39 427 95 639 137c134 26 275 53 407 53c9 0 19 0 25 -1c41 -1 144 -8 149 -64c-2 -23 -17 -38 -22 -38l1 8c1 2 1 5 1 8c0 50 -73 53 -112 53c-135 0 -306 -36 -441 -64c-99 -20 -202 -43 -300 -66l-80 -19
c-1 -24 -11 -52 -11 -68l-16 -81c-66 -265 -120 -563 -159 -844c186 43 369 70 549 77c17 0 27 -9 28 -25c-4 -13 -15 -26 -31 -27c-180 -8 -374 -30 -551 -67c-22 -168 -38 -335 -38 -501c0 -55 0 -111 6 -166c10 -108 41 -303 152 -322c138 3 286 133 390 247l145 186
c0 -41 -113 -189 -121 -198zM617 1878l-4 1c-6 2 -8 7 -8 12c0 15 13 39 20 53l3 5v-2c41 69 91 129 139 184l14 -28c3 -4 18 -25 18 -28c-38 -38 -118 -147 -139 -158c-11 -15 -22 -39 -43 -39z" />
    <glyph glyph-name="Ecircumflex" unicode="&#xca;" horiz-adv-x="1008" 
d="M806 -225c-92 -113 -260 -275 -403 -275c-148 0 -197 202 -215 353l-3 46c-3 42 -5 92 -5 135c0 157 15 318 35 482c-97 -21 -216 -44 -266 -48l-2 8c41 20 173 56 273 81c36 284 92 602 157 864c9 35 17 82 42 133c-66 -16 -150 -35 -217 -48c-11 -2 -25 -4 -36 -4
c-9 0 -53 5 -53 17c11 18 63 34 83 38c212 39 427 95 639 137c134 26 275 53 407 53c9 0 19 0 25 -1c41 -1 144 -8 149 -64c-2 -23 -17 -38 -22 -38l1 8c1 2 1 5 1 8c0 50 -73 53 -112 53c-135 0 -306 -36 -441 -64c-99 -20 -202 -43 -300 -66l-80 -19
c-1 -24 -11 -52 -11 -68l-16 -81c-66 -265 -120 -563 -159 -844c186 43 369 70 549 77c17 0 27 -9 28 -25c-4 -13 -15 -26 -31 -27c-180 -8 -374 -30 -551 -67c-22 -168 -38 -335 -38 -501c0 -55 0 -111 6 -166c10 -108 41 -303 152 -322c138 3 286 133 390 247l145 186
c0 -41 -113 -189 -121 -198zM629 1969h-1c28 64 60 127 87 194l22 54c6 11 10 14 23 14c17 -6 17 -43 28 -76l2 -7v2l3 -10c0 -27 52 -164 52 -196c0 -1 -1 -8 -1 -11c-17 3 -59 116 -75 164c1 0 3 6 3 24l-11 -1l-11 29l-83 -197c-9 -14 -18 -27 -28 -27
c-12 0 -16 12 -16 22c0 7 2 15 6 22z" />
    <glyph glyph-name="Edieresis" unicode="&#xcb;" horiz-adv-x="1008" 
d="M806 -225c-92 -113 -260 -275 -403 -275c-148 0 -197 202 -215 353l-3 46c-3 42 -5 92 -5 135c0 157 15 318 35 482c-97 -21 -216 -44 -266 -48l-2 8c41 20 173 56 273 81c36 284 92 602 157 864c9 35 17 82 42 133c-66 -16 -150 -35 -217 -48c-11 -2 -25 -4 -36 -4
c-9 0 -53 5 -53 17c11 18 63 34 83 38c212 39 427 95 639 137c134 26 275 53 407 53c9 0 19 0 25 -1c41 -1 144 -8 149 -64c-2 -23 -17 -38 -22 -38l1 8c1 2 1 5 1 8c0 50 -73 53 -112 53c-135 0 -306 -36 -441 -64c-99 -20 -202 -43 -300 -66l-80 -19
c-1 -24 -11 -52 -11 -68l-16 -81c-66 -265 -120 -563 -159 -844c186 43 369 70 549 77c17 0 27 -9 28 -25c-4 -13 -15 -26 -31 -27c-180 -8 -374 -30 -551 -67c-22 -168 -38 -335 -38 -501c0 -55 0 -111 6 -166c10 -108 41 -303 152 -322c138 3 286 133 390 247l145 186
c0 -41 -113 -189 -121 -198zM636 1959c1 26 20 53 42 56h6c19 0 33 -16 33 -39c0 -27 -23 -53 -44 -56h-6c-19 0 -31 16 -31 39zM793 1920h-5c-20 0 -32 16 -32 39c0 26 18 53 42 56h6c18 0 32 -15 32 -37c0 -28 -19 -55 -43 -58z" />
    <glyph glyph-name="Igrave" unicode="&#xcc;" horiz-adv-x="668" 
d="M328 -402l93 16c28 0 210 29 296 29c13 0 19 0 34 -2c-2 -24 -183 -40 -274 -56l-45 -8c-139 -25 -287 -60 -416 -106c-4 -3 -7 -3 -12 -3c-10 0 -27 8 -27 23c0 9 8 17 16 22c93 33 203 61 313 81c4 52 11 111 15 164l5 46c3 31 6 61 8 92l21 274c7 107 16 222 23 333
l7 87c18 336 50 707 55 1049c0 2 -1 3 -1 6s2 12 4 19c-126 -25 -244 -54 -361 -97c-3 -1 -6 -2 -11 -2c-12 0 -27 10 -27 25c0 7 7 15 13 19c130 47 293 80 430 102c27 4 211 30 297 30c10 0 21 0 34 -2c-3 -25 -201 -46 -293 -60l-26 -4c4 -14 5 -22 5 -32
c-2 -245 -21 -497 -39 -746l-22 -306c-17 -229 -38 -467 -65 -694c0 -4 -2 -8 -2 -12c-9 -73 -18 -147 -34 -223c0 -3 -2 -8 -2 -11zM485 1963c0 0 -8 7 -10 11l1 -1c-35 46 -71 90 -106 133v-1c-4 3 -5 12 -5 22c0 27 21 36 29 36c10 0 13 -2 13 -2c8 -10 62 -84 66 -93v6
l20 -30c24 -36 46 -70 46 -102c0 -10 -6 -18 -15 -18c-10 0 -22 11 -30 25l-9 15v-1z" />
    <glyph glyph-name="Iacute" unicode="&#xcd;" horiz-adv-x="668" 
d="M328 -402l93 16c28 0 210 29 296 29c13 0 19 0 34 -2c-2 -24 -183 -40 -274 -56l-45 -8c-139 -25 -287 -60 -416 -106c-4 -3 -7 -3 -12 -3c-10 0 -27 8 -27 23c0 9 8 17 16 22c93 33 203 61 313 81c4 52 11 111 15 164l5 46c3 31 6 61 8 92l21 274c7 107 16 222 23 333
l7 87c18 336 50 707 55 1049c0 2 -1 3 -1 6s2 12 4 19c-126 -25 -244 -54 -361 -97c-3 -1 -6 -2 -11 -2c-12 0 -27 10 -27 25c0 7 7 15 13 19c130 47 293 80 430 102c27 4 211 30 297 30c10 0 21 0 34 -2c-3 -25 -201 -46 -293 -60l-26 -4c4 -14 5 -22 5 -32
c-2 -245 -21 -497 -39 -746l-22 -306c-17 -229 -38 -467 -65 -694c0 -4 -2 -8 -2 -12c-9 -73 -18 -147 -34 -223c0 -3 -2 -8 -2 -11zM403 1929v1c-6 2 -8 5 -8 12c0 16 18 48 23 57v-1c34 61 75 109 114 156l27 30c0 -12 9 -29 14 -33l2 -4c2 -5 8 -13 20 -13
c-46 -50 -102 -114 -146 -167l-8 -11c-10 -14 -22 -27 -38 -27z" />
    <glyph glyph-name="Icircumflex" unicode="&#xce;" horiz-adv-x="668" 
d="M328 -402l93 16c28 0 210 29 296 29c13 0 19 0 34 -2c-2 -24 -183 -40 -274 -56l-45 -8c-139 -25 -287 -60 -416 -106c-4 -3 -7 -3 -12 -3c-10 0 -27 8 -27 23c0 9 8 17 16 22c93 33 203 61 313 81c4 52 11 111 15 164l5 46c3 31 6 61 8 92l21 274c7 107 16 222 23 333
l7 87c18 336 50 707 55 1049c0 2 -1 3 -1 6s2 12 4 19c-126 -25 -244 -54 -361 -97c-3 -1 -6 -2 -11 -2c-12 0 -27 10 -27 25c0 7 7 15 13 19c130 47 293 80 430 102c27 4 211 30 297 30c10 0 21 0 34 -2c-3 -25 -201 -46 -293 -60l-26 -4c4 -14 5 -22 5 -32
c-2 -245 -21 -497 -39 -746l-22 -306c-17 -229 -38 -467 -65 -694c0 -4 -2 -8 -2 -12c-9 -73 -18 -147 -34 -223c0 -3 -2 -8 -2 -11zM372 1944l30 67c19 42 39 84 57 127l23 54c4 10 10 14 21 14c18 -9 20 -49 30 -81l4 -10c0 -3 3 -9 3 -13c14 -43 50 -155 50 -183
c0 -1 -2 -8 -2 -11c-16 3 -46 78 -64 132l-19 56c-4 12 -7 15 -11 28l-20 -48c-33 -79 -72 -176 -90 -176c-13 0 -18 12 -18 22c0 6 3 15 7 22h-1z" />
    <glyph glyph-name="Idieresis" unicode="&#xcf;" horiz-adv-x="668" 
d="M328 -402l93 16c28 0 210 29 296 29c13 0 19 0 34 -2c-2 -24 -183 -40 -274 -56l-45 -8c-139 -25 -287 -60 -416 -106c-4 -3 -7 -3 -12 -3c-10 0 -27 8 -27 23c0 9 8 17 16 22c93 33 203 61 313 81c4 52 11 111 15 164l5 46c3 31 6 61 8 92l21 274c7 107 16 222 23 333
l7 87c18 336 50 707 55 1049c0 2 -1 3 -1 6s2 12 4 19c-126 -25 -244 -54 -361 -97c-3 -1 -6 -2 -11 -2c-12 0 -27 10 -27 25c0 7 7 15 13 19c130 47 293 80 430 102c27 4 211 30 297 30c10 0 21 0 34 -2c-3 -25 -201 -46 -293 -60l-26 -4c4 -14 5 -22 5 -32
c-2 -245 -21 -497 -39 -746l-22 -306c-17 -229 -38 -467 -65 -694c0 -4 -2 -8 -2 -12c-9 -73 -18 -147 -34 -223c0 -3 -2 -8 -2 -11zM549 1931l-1 1c-5 -2 -6 -2 -7 -2c-17 0 -32 16 -32 38c0 25 23 58 50 58c17 0 32 -16 32 -37c0 -29 -20 -55 -42 -58zM389 1970
c2 27 24 56 50 56c18 0 32 -16 32 -37c0 -28 -22 -59 -49 -59c-19 0 -33 17 -33 40z" />
    <glyph glyph-name="Eth" unicode="&#xd0;" horiz-adv-x="1343" 
d="M322 1852v4l1 -2c-2 4 -2 7 -2 8l1 15c52 -16 58 -84 58 -132c0 -1 -2 -2 -2 -6v-34c66 17 130 25 191 25c419 0 672 -428 672 -894c0 -39 -1 -78 -5 -119c-82 -763 -620 -1151 -1215 -1180c-17 0 -99 -7 -153 -7h-21c6 17 101 24 151 27c31 4 68 2 100 7l42 107v-1
c76 292 102 574 126 885l-174 -3c-3 3 -3 9 -3 16c0 10 0 35 8 45c56 0 118 -1 172 -2c26 345 38 689 49 1023c-96 -43 -188 -116 -250 -203l-44 -79h1l-72 -136c-7 11 -11 22 -12 27c0 59 61 183 80 213c78 106 185 194 299 233v51c0 26 3 55 3 83c-1 8 -1 19 -1 29z
M1184 716v1c2 40 4 79 4 116c0 426 -217 846 -622 846c-62 0 -126 -8 -189 -26c-13 -350 -27 -696 -57 -1044l79 -4c37 -2 109 -15 126 -36c-10 -9 -18 -13 -28 -13h-7c-2 0 0 1 -3 1c-6 -1 -19 -1 -29 -1h-23c-6 0 -11 -1 -17 -1h-102c-10 -115 -22 -231 -37 -344l-4 -35
c-23 -182 -56 -453 -154 -608c533 73 981 467 1063 1148z" />
    <glyph glyph-name="Ntilde" unicode="&#xd1;" horiz-adv-x="1341" 
d="M662 633c-61 -272 -113 -558 -161 -829l-35 -197c-2 -12 -13 -20 -28 -22c-20 0 -36 18 -36 32c41 421 82 826 82 1260c0 185 -11 383 -44 567c-24 99 -71 255 -167 270c-228 -18 -295 -748 -299 -987c0 -54 1 -109 7 -164c0 -13 5 -56 10 -61l12 -36
c-20 8 -26 18 -32 28l-5 8c-53 92 -55 248 -55 317c0 44 2 88 5 132c18 235 106 821 345 821h8c2 0 4 -1 6 -1c133 -18 196 -174 230 -322c42 -220 45 -430 45 -648c-4 -170 -12 -334 -23 -498c1 0 3 -1 4 -1c60 295 241 1212 538 1212c105 0 137 -124 150 -232l4 -44
c2 -18 1 -36 2 -54v-54c0 -121 -10 -242 -18 -362c0 -8 -3 -22 -3 -30l-13 -144c-15 -166 -31 -334 -34 -504c0 -80 10 -129 10 -271c0 -17 -1 -28 -2 -29l2 -9c-19 0 -37 207 -38 231l-3 80c0 169 9 354 23 524l8 95c10 123 19 261 19 393c0 38 0 77 -2 114v6
c-3 38 -12 245 -99 245c-206 0 -362 -634 -413 -836zM780 1955h-1c-10 6 -22 8 -32 8c-24 -6 -29 -25 -62 -92c-9 8 -9 11 -9 16c0 18 21 67 26 75c12 19 32 40 52 40l1 1c11 -1 28 -3 39 -10l45 -28c22 -17 48 -34 72 -36c44 0 39 53 70 53c5 -6 5 -12 5 -19
c0 -9 -3 -21 -7 -29c-23 -42 -40 -52 -71 -52c-27 2 -53 20 -75 38l-18 14c-12 9 -26 15 -35 21z" />
    <glyph glyph-name="Ograve" unicode="&#xd2;" horiz-adv-x="1164" 
d="M991 894c1 31 1 61 1 90c0 161 -14 311 -66 474v-1c-77 216 -201 334 -387 343c-111 -3 -217 -31 -288 -137v1l-14 -22c-4 -6 -10 -10 -13 -10c-2 0 -3 1 -4 2c0 8 8 19 12 28v1c1 3 3 7 3 7c73 115 186 155 306 159c206 -2 338 -123 424 -358c58 -179 72 -337 72 -523
c0 -447 -238 -1372 -686 -1386c-156 13 -267 152 -329 333c-47 168 -67 337 -67 495c0 254 70 1037 425 1173c12 3 56 15 85 15c7 0 11 0 21 -3c-4 -13 -18 -14 -33 -20l-18 -7v1l-33 -15h1c-321 -187 -395 -828 -395 -1142c0 -253 66 -755 348 -780
c411 21 619 863 635 1282zM625 2022l-10 12h-2l-11 20v-1c-36 45 -71 90 -108 134l2 -1c-4 2 -6 10 -6 19c0 27 17 37 29 37c21 0 61 -69 80 -88l9 -16c9 -23 55 -62 55 -116c0 -8 -1 -14 -9 -18h-5c-12 0 -19 9 -24 19v-1z" />
    <glyph glyph-name="Oacute" unicode="&#xd3;" horiz-adv-x="1164" 
d="M991 894c1 31 1 61 1 90c0 161 -14 311 -66 474v-1c-77 216 -201 334 -387 343c-111 -3 -217 -31 -288 -137v1l-14 -22c-4 -6 -10 -10 -13 -10c-2 0 -3 1 -4 2c0 8 8 19 12 28v1c1 3 3 7 3 7c73 115 186 155 306 159c206 -2 338 -123 424 -358c58 -179 72 -337 72 -523
c0 -447 -238 -1372 -686 -1386c-156 13 -267 152 -329 333c-47 168 -67 337 -67 495c0 254 70 1037 425 1173c12 3 56 15 85 15c7 0 11 0 21 -3c-4 -13 -18 -14 -33 -20l-18 -7v1l-33 -15h1c-321 -187 -395 -828 -395 -1142c0 -253 66 -755 348 -780
c411 21 619 863 635 1282zM681 2264v1h1c4 0 20 -20 21 -24l-1 1l20 -25c-31 -33 -63 -70 -92 -104l-36 -42c-1 1 -11 -11 -14 -14l3 2l-18 -22c-7 -10 -14 -19 -24 -19s-15 4 -15 15c0 13 13 39 21 53l1 3v-2c35 62 79 111 119 160z" />
    <glyph glyph-name="Ocircumflex" unicode="&#xd4;" horiz-adv-x="1164" 
d="M991 894c1 31 1 61 1 90c0 161 -14 311 -66 474v-1c-77 216 -201 334 -387 343c-111 -3 -217 -31 -288 -137v1l-14 -22c-4 -6 -10 -10 -13 -10c-2 0 -3 1 -4 2c0 8 8 19 12 28v1c1 3 3 7 3 7c73 115 186 155 306 159c206 -2 338 -123 424 -358c58 -179 72 -337 72 -523
c0 -447 -238 -1372 -686 -1386c-156 13 -267 152 -329 333c-47 168 -67 337 -67 495c0 254 70 1037 425 1173c12 3 56 15 85 15c7 0 11 0 21 -3c-4 -13 -18 -14 -33 -20l-18 -7v1l-33 -15h1c-321 -187 -395 -828 -395 -1142c0 -253 66 -755 348 -780
c411 21 619 863 635 1282zM565 2265l21 49c6 15 15 19 26 19c10 -6 13 -26 19 -49l9 -33v1l3 -10c0 -26 52 -159 52 -194c0 -6 0 -9 -3 -12c-25 2 -72 169 -80 189l-10 25l-17 -39c-33 -82 -76 -184 -95 -184c-10 0 -17 9 -17 20c0 8 2 17 7 24h-1c29 64 58 129 86 194z" />
    <glyph glyph-name="Otilde" unicode="&#xd5;" horiz-adv-x="1164" 
d="M991 894c1 31 1 61 1 90c0 161 -14 311 -66 474v-1c-77 216 -201 334 -387 343c-111 -3 -217 -31 -288 -137v1l-14 -22c-4 -6 -10 -10 -13 -10c-2 0 -3 1 -4 2c0 8 8 19 12 28v1c1 3 3 7 3 7c73 115 186 155 306 159c206 -2 338 -123 424 -358c58 -179 72 -337 72 -523
c0 -447 -238 -1372 -686 -1386c-156 13 -267 152 -329 333c-47 168 -67 337 -67 495c0 254 70 1037 425 1173c12 3 56 15 85 15c7 0 11 0 21 -3c-4 -13 -18 -14 -33 -20l-18 -7v1l-33 -15h1c-321 -187 -395 -828 -395 -1142c0 -253 66 -755 348 -780
c411 21 619 863 635 1282zM439 2065l-15 -31l-10 2c0 1 -1 4 -1 5c0 17 20 68 26 78c11 21 28 40 53 40c29 0 54 -16 84 -36l5 -4h-1c21 -16 46 -31 69 -33c32 0 36 53 68 53c4 -5 6 -13 6 -20c0 -9 -2 -20 -8 -28h1c-15 -34 -38 -52 -70 -52c-29 3 -53 20 -77 38l-19 14
c-9 7 -41 29 -67 29c-17 -3 -35 -27 -44 -55z" />
    <glyph glyph-name="Odieresis" unicode="&#xd6;" horiz-adv-x="1164" 
d="M991 894c1 31 1 61 1 90c0 161 -14 311 -66 474v-1c-77 216 -201 334 -387 343c-111 -3 -217 -31 -288 -137v1l-14 -22c-4 -6 -10 -10 -13 -10c-2 0 -3 1 -4 2c0 8 8 19 12 28v1c1 3 3 7 3 7c73 115 186 155 306 159c206 -2 338 -123 424 -358c58 -179 72 -337 72 -523
c0 -447 -238 -1372 -686 -1386c-156 13 -267 152 -329 333c-47 168 -67 337 -67 495c0 254 70 1037 425 1173c12 3 56 15 85 15c7 0 11 0 21 -3c-4 -13 -18 -14 -33 -20l-18 -7v1l-33 -15h1c-321 -187 -395 -828 -395 -1142c0 -253 66 -755 348 -780
c411 21 619 863 635 1282zM657 2033l-7 -2c-19 0 -33 17 -33 40c0 27 25 56 48 56c20 0 33 -17 33 -39c0 -27 -22 -53 -42 -56zM579 2088c-2 -28 -22 -52 -44 -56l-5 -1c-18 0 -33 17 -33 40c0 26 22 50 44 55l5 1c18 0 33 -17 33 -39z" />
    <glyph glyph-name="Oslash" unicode="&#xd8;" horiz-adv-x="1164" 
d="M-25 -481h-5c-5 2 -7 9 -7 17c0 23 17 74 28 101c19 47 42 107 67 168c-83 178 -103 405 -103 585c0 254 70 1037 425 1173c12 3 56 15 85 15c7 0 11 0 21 -3c-4 -13 -18 -14 -33 -20l-18 -7v1l-33 -15h1c-321 -187 -395 -828 -395 -1142c0 -137 17 -351 78 -519
c149 367 373 902 530 1279l108 260v-1c14 45 51 133 99 245c-72 92 -162 140 -284 144c-112 -2 -216 -30 -288 -137v1l-14 -22c-4 -6 -10 -10 -13 -10c-2 0 -3 1 -4 2c0 8 8 19 12 28v1c1 3 3 7 3 7c73 115 186 155 306 159c121 -1 222 -50 298 -133c53 124 110 250 138 291
c0 -38 -54 -189 -108 -329c143 -198 168 -473 168 -710c0 -447 -238 -1372 -686 -1386c-108 10 -195 79 -260 183l-41 -105c-18 -40 -49 -112 -75 -121zM991 894c1 31 1 61 1 90c0 206 -23 446 -139 630c-33 -85 -67 -161 -79 -192l-242 -606l-416 -1013
c51 -106 133 -183 240 -191c411 21 619 863 635 1282z" />
    <glyph glyph-name="Ugrave" unicode="&#xd9;" horiz-adv-x="989" 
d="M942 1582c-56 -373 -105 -708 -133 -1094c-5 -69 -8 -139 -8 -209c0 -57 1 -114 5 -171l3 -40c12 -160 57 -396 204 -445c18 0 75 -7 86 -7l2 -8c-16 -8 -52 -8 -76 -8c-3 0 -7 1 -11 1h-12c-247 53 -255 508 -255 672c0 263 24 502 55 734c-1 0 -3 2 -4 2
c-24 -112 -46 -219 -69 -298c-89 -309 -293 -896 -584 -914c-174 10 -182 299 -182 454c0 131 11 266 24 395c18 182 152 1139 234 1172c5 -8 7 -28 7 -35c0 -47 -15 -125 -20 -154l-2 -10c-64 -324 -122 -642 -160 -974v1c-14 -131 -25 -262 -25 -393c0 -39 1 -77 3 -116
c1 -28 13 -280 124 -290c249 18 457 619 535 871c7 40 108 440 174 693l22 175c2 19 12 60 37 60c23 0 27 -27 27 -43c0 -8 0 -15 -1 -21zM645 1967c-36 44 -71 88 -107 131l-2 1c-3 1 -4 9 -4 18c0 29 19 40 30 40c9 0 15 -6 17 -9v3c9 -10 57 -82 61 -90v7
c33 -46 66 -93 66 -133c0 -9 -3 -17 -14 -17c-13 0 -23 12 -31 25l-16 25v-1z" />
    <glyph glyph-name="Uacute" unicode="&#xda;" horiz-adv-x="989" 
d="M942 1582c-56 -373 -105 -708 -133 -1094c-5 -69 -8 -139 -8 -209c0 -57 1 -114 5 -171l3 -40c12 -160 57 -396 204 -445c18 0 75 -7 86 -7l2 -8c-16 -8 -52 -8 -76 -8c-3 0 -7 1 -11 1h-12c-247 53 -255 508 -255 672c0 263 24 502 55 734c-1 0 -3 2 -4 2
c-24 -112 -46 -219 -69 -298c-89 -309 -293 -896 -584 -914c-174 10 -182 299 -182 454c0 131 11 266 24 395c18 182 152 1139 234 1172c5 -8 7 -28 7 -35c0 -47 -15 -125 -20 -154l-2 -10c-64 -324 -122 -642 -160 -974v1c-14 -131 -25 -262 -25 -393c0 -39 1 -77 3 -116
c1 -28 13 -280 124 -290c249 18 457 619 535 871c7 40 108 440 174 693l22 175c2 19 12 60 37 60c23 0 27 -27 27 -43c0 -8 0 -15 -1 -21zM536 1900h-5c-7 3 -7 7 -7 12c0 16 16 49 22 58v-1c37 60 76 111 117 159l24 28c0 -34 28 -45 28 -59c-47 -51 -95 -106 -138 -160
l-7 -10c-11 -14 -21 -27 -34 -27z" />
    <glyph glyph-name="Ucircumflex" unicode="&#xdb;" horiz-adv-x="989" 
d="M942 1582c-56 -373 -105 -708 -133 -1094c-5 -69 -8 -139 -8 -209c0 -57 1 -114 5 -171l3 -40c12 -160 57 -396 204 -445c18 0 75 -7 86 -7l2 -8c-16 -8 -52 -8 -76 -8c-3 0 -7 1 -11 1h-12c-247 53 -255 508 -255 672c0 263 24 502 55 734c-1 0 -3 2 -4 2
c-24 -112 -46 -219 -69 -298c-89 -309 -293 -896 -584 -914c-174 10 -182 299 -182 454c0 131 11 266 24 395c18 182 152 1139 234 1172c5 -8 7 -28 7 -35c0 -47 -15 -125 -20 -154l-2 -10c-64 -324 -122 -642 -160 -974v1c-14 -131 -25 -262 -25 -393c0 -39 1 -77 3 -116
c1 -28 13 -280 124 -290c249 18 457 619 535 871c7 40 108 440 174 693l22 175c2 19 12 60 37 60c23 0 27 -27 27 -43c0 -8 0 -15 -1 -21zM621 2148l2 3c4 7 12 11 19 13c14 -6 16 -27 22 -48l12 -45c0 -2 0 -4 4 -9l7 -28c16 -50 42 -134 42 -157c0 -1 -1 -8 -1 -11
c-16 3 -55 106 -74 158l-4 15v-1l-16 44c-39 -83 -85 -224 -112 -224c-9 0 -15 9 -15 21c0 9 2 17 5 23c29 63 58 127 85 191l24 57v-2z" />
    <glyph glyph-name="Udieresis" unicode="&#xdc;" horiz-adv-x="989" 
d="M942 1582c-56 -373 -105 -708 -133 -1094c-5 -69 -8 -139 -8 -209c0 -57 1 -114 5 -171l3 -40c12 -160 57 -396 204 -445c18 0 75 -7 86 -7l2 -8c-16 -8 -52 -8 -76 -8c-3 0 -7 1 -11 1h-12c-247 53 -255 508 -255 672c0 263 24 502 55 734c-1 0 -3 2 -4 2
c-24 -112 -46 -219 -69 -298c-89 -309 -293 -896 -584 -914c-174 10 -182 299 -182 454c0 131 11 266 24 395c18 182 152 1139 234 1172c5 -8 7 -28 7 -35c0 -47 -15 -125 -20 -154l-2 -10c-64 -324 -122 -642 -160 -974v1c-14 -131 -25 -262 -25 -393c0 -39 1 -77 3 -116
c1 -28 13 -280 124 -290c249 18 457 619 535 871c7 40 108 440 174 693l22 175c2 19 12 60 37 60c23 0 27 -27 27 -43c0 -8 0 -15 -1 -21zM632 1995c2 25 24 56 49 56c19 0 33 -17 33 -40c0 -25 -28 -56 -50 -56c-19 0 -32 17 -32 40zM552 1957l-6 -2c-19 0 -33 17 -33 40
c0 26 22 50 44 55l4 1c18 0 32 -16 32 -38c0 -26 -19 -54 -42 -57z" />
    <glyph glyph-name="Yacute" unicode="&#xdd;" horiz-adv-x="1038" 
d="M901 1536l-4 2l-64 -144c-59 -140 -125 -291 -196 -433c-107 -204 -292 -510 -514 -520c-136 6 -169 182 -169 350c0 176 32 391 79 564c9 33 58 186 98 216l-1 16l24 -21h-15l-25 -97c-57 -222 -102 -461 -101 -696c0 -66 17 -268 115 -280c183 10 364 314 453 486
c129 250 223 503 334 741c6 12 20 18 30 18c14 0 30 -6 30 -26c-40 -387 -70 -776 -109 -1161l131 20l1 -15l-134 -21c-61 -483 -216 -1195 -687 -1210c-118 5 -258 78 -258 274c0 8 0 18 1 27v-1c8 91 38 173 76 250c178 319 500 577 814 664l25 244c15 149 29 304 41 454z
M-33 -373v-1c-1 -9 -1 -36 -1 -45c17 -151 116 -211 214 -215c426 18 570 718 626 1155c-247 -80 -424 -213 -593 -393c-102 -121 -230 -320 -246 -501zM474 1863c34 60 78 112 119 160l24 28c0 -16 7 -26 10 -31l2 -5l17 -23l-45 -51c-31 -35 -65 -73 -94 -109l-9 -11v1
l-7 -10c-8 -10 -15 -18 -26 -18s-14 3 -14 13c0 14 19 48 23 56z" />
    <glyph glyph-name="Scaron" unicode="&#x160;" horiz-adv-x="947" 
d="M649 1804c-195 0 -536 -136 -536 -425c0 -104 35 -181 91 -274v1c146 -223 367 -404 491 -645c51 9 107 29 151 29c4 0 20 -5 20 -12c0 -2 -122 -28 -161 -34c38 -79 56 -157 56 -244c0 -156 -31 -307 -120 -451c-114 -161 -296 -270 -476 -270c-89 2 -193 35 -255 133
c-23 46 -27 84 -27 145c42 401 466 623 754 692c-72 131 -172 247 -270 359c-148 168 -316 363 -316 570c0 2 1 4 1 6v4c24 321 407 461 599 461c109 0 265 -43 270 -218c-2 -19 -12 -108 -43 -133l-5 56c-1 15 -1 32 -1 45l-2 30c-24 143 -124 175 -221 175zM648 430l-1 2
c-277 -75 -702 -318 -713 -716c11 -109 98 -191 233 -200c50 1 99 9 145 26c247 89 391 322 391 647c0 94 -19 168 -56 241h1zM521 2253v1c-1 4 -2 8 -2 13c0 13 6 30 21 30c19 0 51 -106 75 -187c2 -11 4 -21 8 -30l12 27l21 40c28 53 71 141 88 143
c0 -18 -57 -149 -73 -185v1l-6 -14c-6 -13 -19 -45 -27 -73c-1 -10 -10 -14 -18 -16c-6 0 -12 0 -12 1l-7 14c-26 80 -52 157 -80 235z" />
    <glyph glyph-name="Zcaron" unicode="&#x17d;" horiz-adv-x="890" 
d="M858 1269c-106 -214 -246 -439 -386 -666c-66 -106 -132 -212 -199 -317v1c-71 -111 -141 -223 -210 -335c-41 -66 -85 -144 -126 -229c-11 -22 -32 -71 -35 -96c0 -18 9 -21 24 -21c43 0 98 28 137 49c266 141 632 435 840 670c4 2 17 22 32 40l17 21v-1l5 7l10 -4
c-96 -203 -756 -756 -1017 -819c-9 0 -19 -3 -30 -3c-19 0 -73 11 -73 57c2 36 22 79 36 108c81 165 201 356 312 532v-1l222 354c126 204 265 435 379 663c36 72 105 224 105 314c0 67 -52 73 -87 73c-162 0 -387 -148 -529 -276v1l-190 -200c-4 6 -7 13 -7 16
c0 49 120 183 147 211c141 129 406 297 587 297c65 0 143 -31 143 -116c0 -104 -70 -252 -107 -330zM541 2154h1c-3 5 -4 11 -4 16c0 12 5 28 22 28c18 0 45 -99 71 -178l12 -37c10 19 11 24 13 27l33 64c24 48 54 107 73 119c0 -31 -56 -153 -72 -189l-6 -10
c-12 -35 -33 -90 -47 -90c-10 0 -16 5 -17 13c-24 78 -52 160 -79 237z" />
    <glyph glyph-name="scaron" unicode="&#x161;" horiz-adv-x="486" 
d="M217 33c-9 -9 -17 -21 -23 -32l-4 -5v1l-13 -20c42 -162 85 -338 85 -549c0 -175 -77 -419 -249 -419c-102 0 -157 96 -167 241c1 243 157 547 276 720l-8 29c-41 150 -85 329 -86 496c6 134 53 270 178 270c61 -3 98 -66 107 -137v-7c0 -25 0 -72 -15 -86
c-15 28 -10 27 -13 39l-13 44c-11 36 -35 77 -68 77c-85 0 -122 -108 -122 -202c0 -162 37 -305 81 -464c123 152 316 310 370 311c-37 -27 -164 -129 -316 -307zM139 -92l-6 2c-97 -154 -239 -435 -239 -648c0 -90 40 -182 118 -191c134 5 197 212 197 345
c0 187 -31 345 -70 492zM200 951l2 -6l-16 51c-20 62 -44 129 -64 186c-1 4 -2 8 -2 15c0 12 5 29 22 29c18 0 61 -140 82 -217c10 18 11 22 11 27c11 11 82 178 108 178h2c0 -29 -71 -182 -83 -200h1c-14 -26 -22 -80 -46 -81c-9 0 -15 4 -17 18z" />
    <glyph glyph-name="oe" unicode="&#x153;" horiz-adv-x="825" 
d="M367 317h-11c-5 -24 -7 -43 -7 -64c0 -89 31 -146 95 -146c95 0 214 84 290 150l138 144c0 -49 -92 -149 -112 -173h1c-82 -83 -208 -179 -320 -179c-54 0 -102 34 -132 109c-37 -93 -105 -197 -185 -207c-109 3 -133 169 -133 261c0 68 10 135 31 194c7 19 40 85 66 85
c12 0 12 -7 12 -16c-1 -23 -15 -62 -24 -85l-3 -9c-21 -60 -31 -127 -31 -187c0 -30 9 -178 75 -182c99 13 158 189 180 293c5 38 9 81 9 121c0 31 -8 148 -66 163c-85 -3 -109 -121 -109 -205v-18c0 -10 19 -123 23 -133c-25 5 -47 110 -51 133c-3 18 -3 37 -3 54
c0 114 45 218 138 218c67 -4 96 -85 108 -168c48 95 118 189 206 189c53 0 96 -42 96 -111c0 -118 -177 -231 -281 -231zM547 592c-82 -12 -153 -142 -183 -233c50 17 229 86 229 193c0 33 -29 39 -46 40z" />
    <glyph glyph-name="zcaron" unicode="&#x17e;" horiz-adv-x="386" 
d="M238 205c-38 -39 -79 -78 -120 -112l-31 -26h1l-17 -14c71 -65 119 -160 155 -260c47 22 94 35 143 35c13 0 27 -3 51 -25c-23 0 -27 6 -36 6c-2 0 -3 -1 -8 -1h-7c-43 -6 -92 -26 -135 -47l12 -47c21 -102 32 -208 32 -299c0 -68 -4 -135 -12 -206
c-32 -214 -133 -567 -340 -567c-126 0 -161 147 -161 254c0 318 184 729 411 871c-35 107 -86 197 -167 253c-9 7 -15 19 -15 32c0 12 4 23 10 29l43 34h-1l30 27c43 39 89 76 123 114c36 38 73 87 76 152c0 69 -30 91 -70 91c-71 0 -130 -38 -171 -105h1
c-3 -7 -9 -14 -12 -21c-4 -7 -3 -29 -31 -60c-7 7 -10 15 -10 25c0 141 120 230 222 230c63 0 127 -47 127 -153c0 -84 -47 -158 -93 -210zM215 -779c7 63 11 124 11 182c0 93 -6 207 -36 314l-4 13c-203 -144 -375 -532 -375 -821c0 -104 28 -207 114 -207h13c3 0 3 1 5 1
c165 32 247 341 272 518zM98 977h-1c1 1 5 3 10 3c11 0 20 -9 21 -19c14 -43 45 -140 62 -197c4 7 6 11 9 20l11 19h-1c22 44 80 165 102 165c0 -26 -58 -151 -77 -189l-5 -11c-12 -21 -23 -80 -45 -81c-9 0 -15 5 -16 12c-24 75 -55 165 -80 237c-1 3 -2 10 -2 14
c0 10 3 21 12 27z" />
    <glyph glyph-name="Ydieresis" unicode="&#x178;" horiz-adv-x="1038" 
d="M901 1536l-4 2l-64 -144c-59 -140 -125 -291 -196 -433c-107 -204 -292 -510 -514 -520c-136 6 -169 182 -169 350c0 176 32 391 79 564c9 33 58 186 98 216l-1 16l24 -21h-15l-25 -97c-57 -222 -102 -461 -101 -696c0 -66 17 -268 115 -280c183 10 364 314 453 486
c129 250 223 503 334 741c6 12 20 18 30 18c14 0 30 -6 30 -26c-40 -387 -70 -776 -109 -1161l131 20l1 -15l-134 -21c-61 -483 -216 -1195 -687 -1210c-118 5 -258 78 -258 274c0 8 0 18 1 27v-1c8 91 38 173 76 250c178 319 500 577 814 664l25 244c15 149 29 304 41 454z
M-33 -373v-1c-1 -9 -1 -36 -1 -45c17 -151 116 -211 214 -215c426 18 570 718 626 1155c-247 -80 -424 -213 -593 -393c-102 -121 -230 -320 -246 -501zM614 1872l-8 -2c-18 0 -31 16 -31 36c0 27 21 60 49 60c18 0 32 -17 32 -40c0 -27 -21 -52 -43 -55zM493 1871l-1 1
c-5 -2 -5 -2 -6 -2c-17 0 -31 16 -31 36c0 29 21 60 49 60c15 0 32 -16 32 -38c0 -28 -21 -54 -43 -57z" />
    <glyph glyph-name="questiondown" unicode="&#xbf;" horiz-adv-x="651" 
d="M630 23c0 -17 0 -37 2 -48c-13 -191 -113 -403 -283 -403c-165 0 -281 126 -281 385c0 200 86 338 180 477s160 262 199 443c7 43 27 206 27 247c0 4 -3 13 -3 13c12 0 21 -30 21 -71c0 -72 -12 -177 -15 -194c-37 -195 -101 -327 -200 -479v1l-15 -23
c-79 -123 -145 -238 -145 -409c0 -215 101 -316 237 -316c130 0 208 179 225 326c0 25 2 142 17 172c21 -4 32 -70 34 -121zM506 1380c15 0 26 -18 26 -41c0 -32 -22 -59 -40 -59c-16 0 -27 15 -27 37c0 33 19 63 41 63z" />
    <glyph glyph-name="brokenbar" unicode="&#xa6;" horiz-adv-x="168" 
d="M109 -277c-3 -43 -9 -86 -26 -97v3l-7 -4c-1 -2 -8 16 -8 44l-1 38c-7 269 -3 392 -5 474l-3 502c1 16 0 51 1 76c3 50 8 100 23 109c18 -8 25 -121 25 -174l1 -208c1 -263 -3 -246 -1 -514l2 -209c0 -12 -1 -29 -1 -40zM107 2048v-140c0 -324 -4 -291 -2 -581l1 -211
c1 -13 1 -32 0 -45c-2 -42 -11 -82 -29 -93c-12 3 -13 26 -11 51l-1 30c-5 271 -6 395 -6 477l1 237c0 77 -10 183 -1 343c2 45 7 89 20 107c21 -11 26 -122 28 -175z" />
    <glyph glyph-name="ellipsis" unicode="&#x2026;" horiz-adv-x="628" 
d="M488 -119c-15 0 -26 16 -26 39c0 31 20 60 42 60c16 0 26 -17 26 -40c0 -32 -23 -59 -42 -59zM279 -119c-15 0 -26 17 -26 39c0 29 23 60 42 60c15 0 26 -16 26 -38c0 -33 -22 -61 -42 -61zM44 -69v-1c4 27 23 50 42 50c15 0 25 -17 25 -40c0 -32 -23 -59 -42 -59
c-15 0 -26 16 -26 39c0 4 0 8 1 11z" />
    <glyph glyph-name="quotedblbase" unicode="&#x201e;" horiz-adv-x="278" 
d="M89 -122l-1 -5l-2 -4c-6 -15 -19 -41 -30 -41c-6 0 -11 7 -11 16c0 15 10 37 10 49c6 24 16 108 27 108c8 0 32 -5 35 -6c-3 -38 -16 -89 -28 -119v2zM146 -172c-6 0 -10 2 -10 14s8 29 8 43v8c4 24 23 108 29 108s32 -5 34 -6c-3 -30 -31 -167 -61 -167z" />
    <glyph glyph-name="quotesinglbase" unicode="&#x201a;" horiz-adv-x="212" 
d="M90 -118l-8 -14v2l-3 -7h1c-7 -15 -14 -35 -26 -35c-9 0 -11 8 -11 17c0 10 3 24 7 35v-1c0 1 1 2 1 3l11 61c5 29 12 58 17 58c7 0 21 -4 35 -4c-3 -41 -14 -90 -24 -115z" />
    <glyph glyph-name="quoteleft" unicode="&#x2018;" horiz-adv-x="88" 
d="M-50 1695v1c7 -46 19 -84 31 -121v1l6 -12c5 -19 13 -46 13 -61c0 -5 -2 -12 -11 -12c-20 0 -69 126 -83 205c8 5 19 5 21 5c4 0 23 0 23 -6z" />
    <glyph glyph-name="quoteright" unicode="&#x2019;" horiz-adv-x="86" 
d="M-76 1491l-4 2c-4 4 -5 10 -5 17c0 16 7 36 7 48l2 14c9 39 15 78 19 123c0 6 20 6 23 6c4 0 20 0 22 -7c-3 -29 -32 -203 -64 -203z" />
    <glyph glyph-name="quotedblleft" unicode="&#x201c;" horiz-adv-x="176" 
d="M13 1701c2 0 20 -2 24 -5c7 -45 18 -85 31 -123l5 -15c6 -18 11 -42 12 -55c0 -5 0 -9 -8 -12c-24 0 -73 126 -84 203c3 7 16 7 20 7zM-48 1549c-17 36 -38 100 -46 147c8 5 19 5 21 5c4 0 19 -1 23 -5c7 -45 19 -84 31 -121v1l6 -12c5 -19 13 -46 13 -61
c0 -5 -2 -12 -10 -12c-14 0 -32 41 -38 58z" />
    <glyph glyph-name="quotedblright" unicode="&#x201d;" horiz-adv-x="168" 
d="M-76 1491l-4 2c-4 4 -5 10 -5 17c0 16 7 36 7 48l2 14c9 39 15 78 19 123c0 6 20 6 23 6c2 0 14 0 22 -5c-3 -31 -32 -205 -64 -205zM2 1558l3 14c8 39 16 79 18 123c0 6 22 6 23 6c5 0 21 0 21 -7c-4 -78 -43 -203 -68 -203c-2 4 -3 10 -3 17c1 14 3 35 6 50z" />
    <glyph glyph-name="a.001" unicode="&#xe019;" horiz-adv-x="457" 
d="M320 33v-1c2 -5 7 -10 11 -10c39 0 80 111 95 147v-1l13 43c16 55 43 144 51 144l4 9c2 -2 2 -6 2 -12c0 -40 -41 -188 -46 -204c-24 -70 -59 -171 -120 -175c-50 6 -53 88 -53 128c0 105 16 214 33 316l-3 2l-108 -203c-41 -78 -112 -203 -161 -207
c-47 0 -60 62 -60 109c0 153 117 446 208 446c29 0 69 -32 69 -70c0 -7 0 -9 -9 -9c-2 0 -9 2 -18 9h1l-8 3c-4 2 -13 4 -19 4c-83 -12 -181 -264 -181 -391c0 -34 9 -35 11 -35c30 0 126 174 143 203c20 35 38 71 58 108h-1c35 67 72 135 109 194c3 5 7 9 14 9
c10 0 22 -18 22 -38v-6c-25 -121 -65 -309 -65 -445c0 -21 0 -47 8 -67z" />
    <glyph glyph-name="e.001" unicode="&#xe01a;" horiz-adv-x="359" 
d="M317 536c1 -7 1 -15 1 -21c0 -9 0 -17 -2 -25c-39 -139 -209 -201 -283 -208c-3 -25 -4 -41 -4 -58c0 -89 25 -151 110 -151c20 0 38 4 58 9l23 8l-1 -1l9 3c26 10 61 21 81 23c-12 -27 -90 -67 -100 -71c-30 -11 -70 -16 -102 -17c-82 17 -126 102 -126 204
c0 164 92 381 229 399c48 -2 98 -28 107 -94zM40 324c80 30 204 106 224 207c-6 24 -30 32 -48 33c-83 -11 -148 -140 -176 -240z" />
    <glyph glyph-name="c.001" unicode="&#xe01b;" horiz-adv-x="411" 
d="M307 359c-18 0 -20 46 -20 71v25c-3 44 -25 79 -61 81c-108 -17 -185 -245 -185 -362c0 -101 47 -157 117 -157c35 0 66 8 99 21l-1 -1l27 15c22 12 51 29 63 32c5 -8 5 -9 5 -11c0 -23 -58 -61 -76 -72h1c-3 -3 -4 -4 -8 -4c-38 -20 -72 -33 -114 -35
c-96 0 -151 73 -162 215c2 158 88 409 226 431c69 -3 120 -70 125 -160c-2 -29 -13 -89 -36 -89z" />
    <glyph glyph-name="n.001" unicode="&#xe01d;" horiz-adv-x="444" 
d="M323 37c3 -9 8 -12 15 -14c37 2 73 93 92 137c0 2 3 7 5 9c3 21 49 168 57 191l11 -1v-9c0 -46 -44 -188 -44 -201c-23 -70 -64 -176 -120 -176c-51 5 -56 75 -59 126c2 64 8 147 18 213l4 27c8 55 12 112 11 168c0 27 -3 71 -27 75c-51 -1 -107 -170 -122 -218
c-12 -37 -23 -79 -35 -122c-21 -77 -57 -221 -85 -221c-16 0 -23 17 -25 38c4 198 21 646 56 650c16 -2 20 -44 20 -76c0 -13 -1 -26 -1 -35v-12c-10 -121 -19 -238 -24 -359c1 0 1 -1 4 -1c6 21 13 43 17 63l33 107c33 96 86 248 162 248c50 -11 67 -73 67 -134
c0 -144 -35 -284 -35 -428c0 -15 1 -32 5 -45z" />
    <glyph glyph-name="l.001" unicode="&#xe01e;" horiz-adv-x="380" 
d="M306 -19l11 40c26 95 94 324 108 360l10 -2c0 -58 -89 -379 -100 -414c-35 -105 -107 -296 -203 -310c-113 7 -118 248 -118 377c0 277 126 1849 371 1885c72 -7 97 -87 97 -171c0 -283 -172 -804 -274 -1059l-7 -14c-18 -47 -77 -183 -117 -236
c-13 -137 -25 -273 -25 -407v-44c0 -102 5 -281 70 -281c75 14 147 194 177 276zM417 1823c-7 18 -17 27 -31 27c-84 0 -160 -389 -177 -476c-50 -260 -82 -521 -111 -795l4 -1c22 67 51 131 56 144c104 262 249 723 270 1002v29c0 22 -2 45 -11 70z" />
    <glyph glyph-name="m.001" unicode="&#xe01f;" horiz-adv-x="785" 
d="M396 13h-1c-6 -17 -25 -16 -23 -16c-20 0 -27 15 -27 35c19 171 49 351 49 543c0 25 -4 79 -22 79c-27 0 -71 -93 -82 -120c-29 -69 -57 -150 -81 -224c-1 -6 -4 -12 -5 -18l-56 -190c-29 -109 -77 -277 -116 -277c-17 6 -22 21 -22 36c1 164 12 328 24 491
c0 23 20 227 46 227c12 0 19 -40 19 -83c0 -63 -9 -138 -9 -150c-9 -98 -14 -195 -20 -294c1 0 1 -2 4 -2c50 175 98 352 170 516c24 55 76 153 132 153h7c60 -16 61 -121 61 -183c0 -74 -6 -144 -13 -215l2 -1c36 116 100 320 190 320c47 -8 66 -71 66 -127
c0 -72 -7 -144 -17 -214l-3 -20c-9 -58 -20 -125 -18 -182c0 -32 7 -71 21 -78c39 2 73 91 89 131l8 15l-1 -1l58 193l11 -1c0 -40 -37 -178 -45 -203c-19 -62 -60 -175 -122 -176c-51 6 -53 70 -56 119c0 64 12 134 16 200c0 45 15 133 15 198c0 13 -2 82 -27 91
c-45 0 -98 -163 -119 -226c-36 -108 -64 -241 -103 -346z" />
    <glyph glyph-name="h.001" unicode="&#xe020;" horiz-adv-x="481" 
d="M293 1735l-6 -3c-173 -253 -212 -1054 -234 -1500c1 0 3 -1 4 -1l33 114c8 29 16 61 23 81v-1c32 96 94 275 170 275c63 0 77 -96 77 -141c-2 -77 -13 -172 -19 -232l-3 -31c-4 -65 -18 -129 -18 -193v-7c0 -32 2 -77 26 -77c40 0 91 110 104 148l13 38
c15 45 40 121 47 148l11 -1c-1 -40 -41 -187 -47 -203c-21 -61 -68 -173 -130 -173c-51 0 -58 85 -58 141c0 69 12 137 16 206l4 33c7 62 12 142 13 207c0 18 -3 75 -30 79c-54 -1 -108 -164 -133 -246l-12 -40c-8 -27 -18 -56 -25 -85l-12 -44c-22 -81 -57 -204 -81 -204
c-16 0 -25 20 -27 37c12 296 36 701 67 995c21 172 48 354 89 505c23 85 67 215 144 215c8 0 13 -2 16 -10c-4 -10 -16 -24 -22 -30z" />
    <glyph glyph-name="s.001" unicode="&#xe021;" horiz-adv-x="436" 
d="M275 606l-10 23c-12 37 -36 80 -70 80c-85 0 -109 -112 -111 -203c7 -128 46 -238 85 -335c72 70 159 131 239 170c9 4 51 27 78 27c8 0 13 0 20 -6c-2 -5 -74 -45 -87 -51h1c-82 -49 -159 -109 -231 -184c45 -109 95 -242 106 -425l3 -70c-11 -162 -72 -360 -233 -366
c-116 10 -178 142 -178 280c0 223 114 442 242 581c-48 107 -92 223 -100 381c1 128 44 271 162 271c71 0 118 -88 118 -171c0 -21 -2 -45 -11 -58c-10 9 -13 29 -20 48v-1zM-54 -339c-7 -37 -11 -71 -11 -107c0 -100 40 -216 129 -225c120 4 171 180 180 310
c-2 187 -48 325 -96 442c-96 -117 -172 -261 -202 -420z" />
    <glyph glyph-name="y.001" unicode="&#xe022;" horiz-adv-x="582" 
d="M418 406c-32 -82 -60 -159 -97 -235l1 -1c-35 -78 -104 -219 -190 -219c-71 0 -96 85 -103 159v-1l-4 29c-1 5 -1 13 -1 19v32c0 31 2 61 5 92l3 55c0 33 36 325 74 326c3 -7 7 -28 7 -54c0 -68 -13 -182 -21 -244l-5 -40c-1 -9 -2 -19 -2 -27l-3 -27l2 -8
c-3 -19 -3 -36 -3 -54v-43c0 -52 5 -145 48 -145c49 0 114 127 144 188c37 86 74 177 108 266l13 34v-1l8 23c14 40 33 98 55 98c20 0 26 -15 30 -41c-20 -263 -18 -520 -34 -778c30 18 46 29 61 34c8 3 77 25 131 25c0 0 -24 -14 -35 -18l-85 -29l1 1
c-28 -17 -53 -32 -74 -49c-16 -374 -67 -1286 -319 -1450c-25 -13 -58 -17 -83 -18c-115 14 -160 157 -160 289c0 362 247 948 508 1173c6 108 8 213 12 320l11 318zM396 -287l-5 3c-233 -241 -455 -755 -455 -1113c0 -33 -3 -224 112 -239c280 25 334 1025 348 1349z" />
    <glyph glyph-name="t.001" unicode="&#xe023;" horiz-adv-x="371" 
d="M146 -140c72 2 132 134 161 200l26 72v-1c32 94 86 248 96 268c8 -14 8 -17 8 -21c0 -60 -79 -297 -96 -341c-34 -86 -110 -218 -190 -233c-114 4 -117 272 -120 433c2 297 30 635 67 936c-102 -17 -210 -41 -288 -75c-9 -3 -18 -6 -28 -6c-11 0 -21 5 -22 12l1 -1
c-2 4 -2 6 -2 9c0 57 233 101 344 118c10 71 24 149 39 219c14 70 53 216 108 229c7 0 16 -3 16 -8c0 -1 -2 -7 -2 -10l-10 -22c-3 -13 -12 -21 -12 -38c-35 -130 -58 -221 -79 -363c148 19 295 31 443 31c80 0 211 -4 216 -24c-11 -19 -199 -25 -264 -25h-21
c-122 -8 -260 -20 -383 -38c-38 -294 -69 -647 -73 -947v-45c0 -37 0 -74 4 -110c0 -54 10 -217 61 -219z" />
    <glyph glyph-name="s.002" unicode="&#xe024;" horiz-adv-x="374" 
d="M287 178l-99 -23l1 1l-21 -11c43 -132 80 -268 80 -423c0 -157 -89 -366 -246 -366c-91 0 -164 87 -164 206c0 209 105 462 273 579l-11 30c-35 112 -71 230 -79 350v-1c-1 8 -1 16 -1 25v25c11 132 77 221 189 221c54 0 114 -43 114 -120c0 -19 -5 -56 -18 -66
c-7 8 -14 25 -18 40l-4 13v-1l-4 9c-14 37 -38 70 -71 70c-79 0 -121 -72 -130 -166c2 -140 41 -271 84 -403c29 16 91 21 112 21h12zM-70 -183v1c-26 -77 -43 -150 -43 -228c0 -110 35 -186 116 -186c138 0 191 191 191 326c0 139 -35 262 -73 383
c-89 -74 -149 -180 -191 -296z" />
    <glyph glyph-name="t.002" unicode="&#xe025;" horiz-adv-x="260" 
d="M201 1749c12 42 41 112 85 120c5 0 13 -2 18 -6l-20 -46v1c-57 -186 -94 -375 -121 -581c186 18 385 31 574 31c101 0 265 -4 281 -23c-15 -20 -311 -25 -371 -26c-159 -8 -334 -21 -492 -39c-53 -416 -87 -867 -87 -1299c0 -96 0 -189 7 -283c4 -96 9 -202 46 -284h-1
c3 -6 9 -12 12 -18v2l9 -8l-6 -8s-25 6 -25 10c0 1 1 1 3 2c-66 60 -77 313 -81 395c-6 107 -9 219 -9 332c0 384 33 794 76 1153c-138 -17 -286 -42 -389 -76c-11 -3 -25 -6 -35 -6c-13 0 -33 7 -33 19c0 59 311 104 464 121c23 176 47 360 95 517z" />
    <glyph glyph-name="t.003" unicode="&#xe026;" horiz-adv-x="228" 
d="M208 1514c-19 -92 -35 -191 -49 -285c75 6 187 15 274 15c43 0 81 -2 99 -5c-33 -26 -306 -52 -380 -58c-70 -499 -111 -1044 -111 -1546c0 -89 3 -177 7 -265v-7c2 -52 13 -311 95 -333c3 0 8 -2 8 -11c-5 -1 -11 -4 -11 -3h-8c-70 0 -102 176 -113 251
c-19 134 -22 279 -22 415v92c0 68 3 136 3 205v6c16 353 44 793 97 1190l-62 -7c-168 -19 -361 -37 -530 -63c-17 0 -37 4 -37 28c0 12 8 26 28 29c190 29 410 47 607 62c13 97 30 199 49 288c14 63 52 169 100 169c0 -7 -7 -24 -11 -34l-3 -7l1 1c-13 -45 -23 -86 -31 -127
z" />
    <glyph glyph-name="t.004" unicode="&#xe027;" horiz-adv-x="217" 
d="M197 1653c13 43 43 120 86 120c6 0 15 -2 15 -9c0 -8 -11 -31 -19 -43v1c-45 -150 -80 -302 -105 -469c141 -8 392 -29 392 -86v-7c-7 -13 -19 -17 -34 -17c-7 0 -18 2 -25 4c-89 28 -223 44 -342 52c-62 -441 -100 -951 -100 -1413c0 -65 0 -130 2 -193
c0 -111 3 -259 47 -371l-1 1l27 -37c-94 30 -107 315 -112 407c-5 91 -8 189 -8 280c0 419 35 905 91 1329l-112 4c-20 1 -40 1 -58 1h-57c-57 0 -125 -3 -184 -3c-21 0 -159 -12 -249 -12c-38 0 -67 2 -70 5c1 35 290 53 318 55c101 6 201 7 301 7c36 0 77 -1 119 -3l2 19
c20 128 40 262 76 378z" />
    <glyph glyph-name="b_n" unicode="&#xe030;" horiz-adv-x="938" 
d="M388 587c0 33 -6 87 -26 107c-125 -33 -268 -675 -297 -811c-2 -10 -11 -24 -24 -24l-6 1c-22 7 -23 30 -23 36l6 266c7 327 15 669 35 989c8 124 21 279 39 404c15 85 53 236 124 236l-20 -28h1c-26 -56 -34 -114 -42 -164c-23 -145 -39 -306 -48 -457
c-21 -323 -30 -669 -38 -993c1 0 1 -1 2 -1c41 163 153 583 284 607c72 -5 77 -134 77 -192c0 -27 0 -56 -4 -85l-7 -54c63 73 109 148 151 231c3 19 10 37 24 37c21 0 27 -31 27 -57c0 -7 -2 -13 -2 -19l-9 -158c-6 -73 -13 -143 -15 -216c1 0 1 -2 4 -2c3 12 8 24 11 36
c8 32 84 350 199 350c54 -10 68 -84 68 -140c0 -58 -6 -120 -12 -177c0 -64 -19 -145 -19 -217c0 -31 0 -57 7 -83v1l10 -28c0 -6 6 -16 6 -23c-50 0 -55 131 -55 172c0 107 19 211 19 328c0 22 -2 108 -30 108c-42 0 -95 -159 -114 -213c-13 -36 -23 -80 -35 -119l-7 -23
c-19 -73 -56 -206 -85 -206c-15 0 -28 13 -28 34c3 146 12 291 21 436l4 90c-42 -81 -89 -133 -136 -188l-15 -16c-28 -124 -109 -316 -219 -316c-25 0 -56 16 -56 55c0 50 50 95 81 122c51 45 100 91 148 140c13 74 24 153 24 224zM238 184c-20 -15 -53 -48 -55 -87h5
c69 0 123 105 150 178c-1 0 -1 1 -3 3z" />
    <glyph glyph-name="c_c" unicode="&#xe031;" horiz-adv-x="1068" 
d="M924 161h-1c-84 -75 -204 -156 -310 -166c-88 3 -147 68 -147 204c0 27 4 57 9 86c-1 0 -3 1 -4 3c-80 -134 -214 -310 -351 -326c-83 3 -127 89 -127 204c0 133 74 420 242 442c64 -2 106 -52 109 -129c-2 -22 -6 -87 -34 -88c-9 7 -11 28 -14 49l-3 18
c0 21 -9 78 -53 81c-148 -19 -196 -308 -196 -379c0 -82 22 -136 74 -137c94 4 192 115 254 193c43 64 144 222 180 267v-1c39 62 94 117 158 126c66 -2 106 -52 110 -129c-3 -22 -9 -87 -35 -88c-8 12 -15 41 -17 64l-2 21v-1c-5 24 -15 62 -52 64
c-104 -15 -187 -224 -196 -342c0 -107 34 -139 91 -140c97 3 212 83 289 146l57 57c58 62 166 164 176 171c5 -10 5 -12 5 -13c0 -55 -201 -247 -212 -257z" />
    <glyph glyph-name="a_m" unicode="&#xe047;" horiz-adv-x="1247" 
d="M915 208c18 29 28 57 42 85l7 14c3 7 17 26 17 37l18 41c32 66 80 166 134 166c44 0 47 -59 47 -95c0 -141 -39 -293 -39 -445c0 -49 3 -123 46 -158h-1l15 -8c-8 -4 -15 -7 -17 -7c-21 0 -51 53 -61 94s-12 82 -12 124c0 75 9 153 16 226l11 115v20c0 7 2 15 2 23
c0 23 0 33 -7 59c-39 -9 -81 -116 -105 -168l-37 -80c-13 -27 -24 -53 -38 -76v1c-20 -36 -40 -72 -80 -72c-34 6 -36 61 -36 92c0 119 24 231 24 363c0 34 1 66 -10 94c-30 -10 -71 -87 -85 -118c-50 -114 -86 -237 -127 -377c-22 -92 -91 -333 -126 -333h-7
c-14 6 -22 21 -22 36c2 139 9 277 19 415c-1 0 -1 1 -2 1c-28 -108 -85 -304 -170 -311c-51 6 -53 102 -53 137c0 99 16 207 33 304l-3 2l-41 -76c-43 -86 -87 -171 -148 -257v1l-7 -10c-18 -25 -43 -61 -72 -64c-49 0 -60 69 -60 108c0 161 114 447 207 447
c30 0 70 -34 70 -70c0 -5 -3 -9 -8 -9c-4 0 -9 3 -18 10v-1c-7 6 -24 9 -26 9c-93 -19 -182 -286 -182 -394c0 -23 6 -33 12 -33c11 0 44 43 53 56c23 36 57 91 88 149l58 110c35 66 73 131 108 190h-1c2 5 10 9 14 10c18 -3 25 -22 25 -38v-7c-27 -122 -64 -327 -64 -463
c0 -22 5 -57 17 -57c48 0 105 162 121 213l70 265c6 39 18 78 33 81c14 -8 17 -45 17 -80c0 -47 -5 -99 -6 -110c-9 -112 -18 -227 -24 -340c2 0 4 -1 5 -1c69 206 96 355 170 518c25 54 73 153 130 153c62 0 64 -100 64 -147s-8 -96 -8 -140l-17 -203c-1 -13 -2 -33 -2 -46
c0 -4 1 -9 1 -15c11 14 21 29 28 41v-1z" />
    <glyph glyph-name="Agrave" unicode="&#xc0;" horiz-adv-x="1167" 
d="M1089 -459l-4 7c-60 95 -89 271 -105 383c-26 234 -31 486 -32 729c-211 -17 -418 -41 -619 -73c-74 -250 -139 -499 -190 -742l-7 -33c-10 -45 -19 -93 -30 -135c0 -15 -20 -110 -34 -129c-22 2 -23 40 -23 73c0 82 12 145 28 230c51 242 115 484 185 724l-176 -31
c-16 -3 -57 -9 -90 -9c-21 0 -38 2 -47 10c16 23 99 44 124 49c68 13 137 25 206 36c91 310 191 614 321 901c54 113 161 333 272 333c105 0 122 -216 128 -340l2 -41c6 -116 2 -235 5 -345c0 -35 -1 -70 -1 -105l-1 -328c34 0 70 3 107 3c48 0 89 -2 89 -13
c1 -19 -125 -28 -197 -32v-107c0 -167 2 -338 12 -503c0 -109 16 -354 91 -499h-1l36 -58l-6 -5c-12 8 -34 36 -43 50zM871 1815h-1c-2 2 -3 2 -3 2c-1 0 -2 -1 -3 -1h-3c-172 -74 -459 -979 -517 -1176c195 29 406 53 603 63v267c0 170 -1 340 -9 510
c-4 80 -11 170 -28 250c-5 25 -18 67 -39 85zM782 2314l1 3c8 10 17 12 23 12c8 0 15 -3 17 -5c6 -7 57 -77 64 -87c2 -2 4 -7 6 -9l13 -20c20 -32 43 -65 43 -98c0 -8 -3 -15 -14 -18c-12 0 -18 10 -26 20v-1l-6 5l-5 11l1 -1c-39 49 -79 100 -119 148v-1c-2 1 -3 9 -3 17
c0 7 1 16 5 24z" />
    <glyph glyph-name="Aacute" unicode="&#xc1;" horiz-adv-x="1167" 
d="M1089 -459l-4 7c-60 95 -89 271 -105 383c-26 234 -31 486 -32 729c-211 -17 -418 -41 -619 -73c-74 -250 -139 -499 -190 -742l-7 -33c-10 -45 -19 -93 -30 -135c0 -15 -20 -110 -34 -129c-22 2 -23 40 -23 73c0 82 12 145 28 230c51 242 115 484 185 724l-176 -31
c-16 -3 -57 -9 -90 -9c-21 0 -38 2 -47 10c16 23 99 44 124 49c68 13 137 25 206 36c91 310 191 614 321 901c54 113 161 333 272 333c105 0 122 -216 128 -340l2 -41c6 -116 2 -235 5 -345c0 -35 -1 -70 -1 -105l-1 -328c34 0 70 3 107 3c48 0 89 -2 89 -13
c1 -19 -125 -28 -197 -32v-107c0 -167 2 -338 12 -503c0 -109 16 -354 91 -499h-1l36 -58l-6 -5c-12 8 -34 36 -43 50zM871 1815h-1c-2 2 -3 2 -3 2c-1 0 -2 -1 -3 -1h-3c-172 -74 -459 -979 -517 -1176c195 29 406 53 603 63v267c0 170 -1 340 -9 510
c-4 80 -11 170 -28 250c-5 25 -18 67 -39 85zM838 2178l-20 -22c-1 -2 -14 -17 -14 -17l-6 -10v1c-8 -12 -18 -26 -28 -26c-1 0 -2 0 -2 3c0 10 21 44 21 54c37 59 81 109 126 165c8 -8 22 -26 23 -32c-34 -36 -68 -77 -100 -116z" />
    <glyph glyph-name="Acircumflex" unicode="&#xc2;" horiz-adv-x="1167" 
d="M1089 -459l-4 7c-60 95 -89 271 -105 383c-26 234 -31 486 -32 729c-211 -17 -418 -41 -619 -73c-74 -250 -139 -499 -190 -742l-7 -33c-10 -45 -19 -93 -30 -135c0 -15 -20 -110 -34 -129c-22 2 -23 40 -23 73c0 82 12 145 28 230c51 242 115 484 185 724l-176 -31
c-16 -3 -57 -9 -90 -9c-21 0 -38 2 -47 10c16 23 99 44 124 49c68 13 137 25 206 36c91 310 191 614 321 901c54 113 161 333 272 333c105 0 122 -216 128 -340l2 -41c6 -116 2 -235 5 -345c0 -35 -1 -70 -1 -105l-1 -328c34 0 70 3 107 3c48 0 89 -2 89 -13
c1 -19 -125 -28 -197 -32v-107c0 -167 2 -338 12 -503c0 -109 16 -354 91 -499h-1l36 -58l-6 -5c-12 8 -34 36 -43 50zM871 1815h-1c-2 2 -3 2 -3 2c-1 0 -2 -1 -3 -1h-3c-172 -74 -459 -979 -517 -1176c195 29 406 53 603 63v267c0 170 -1 340 -9 510
c-4 80 -11 170 -28 250c-5 25 -18 67 -39 85zM765 2066c-5 4 -7 10 -7 18c0 33 39 97 56 140l58 131c0 9 9 16 17 16c22 -1 24 -47 34 -77l4 -13c0 -8 52 -162 52 -198c0 -1 -1 -8 -1 -11c-18 3 -79 174 -84 188l1 -1c-3 6 -5 13 -7 22l-2 7l-86 -202
c-8 -10 -16 -22 -27 -22c-4 0 -6 0 -8 2z" />
    <glyph glyph-name="Atilde" unicode="&#xc3;" horiz-adv-x="1167" 
d="M1089 -459l-4 7c-60 95 -89 271 -105 383c-26 234 -31 486 -32 729c-211 -17 -418 -41 -619 -73c-74 -250 -139 -499 -190 -742l-7 -33c-10 -45 -19 -93 -30 -135c0 -15 -20 -110 -34 -129c-22 2 -23 40 -23 73c0 82 12 145 28 230c51 242 115 484 185 724l-176 -31
c-16 -3 -57 -9 -90 -9c-21 0 -38 2 -47 10c16 23 99 44 124 49c68 13 137 25 206 36c91 310 191 614 321 901c54 113 161 333 272 333c105 0 122 -216 128 -340l2 -41c6 -116 2 -235 5 -345c0 -35 -1 -70 -1 -105l-1 -328c34 0 70 3 107 3c48 0 89 -2 89 -13
c1 -19 -125 -28 -197 -32v-107c0 -167 2 -338 12 -503c0 -109 16 -354 91 -499h-1l36 -58l-6 -5c-12 8 -34 36 -43 50zM871 1815h-1c-2 2 -3 2 -3 2c-1 0 -2 -1 -3 -1h-3c-172 -74 -459 -979 -517 -1176c195 29 406 53 603 63v267c0 170 -1 340 -9 510
c-4 80 -11 170 -28 250c-5 25 -18 67 -39 85zM794 2224c54 0 102 -74 158 -74c38 0 35 53 68 53c4 -4 6 -12 6 -20c0 -34 -37 -81 -71 -81c-31 0 -57 19 -84 37l-4 3h1l-21 15c-16 11 -38 22 -59 28c-17 -6 -30 -21 -43 -52l-19 -35l-10 2c0 1 -1 4 -1 5c0 21 22 70 26 79
c10 18 40 40 53 40z" />
    <glyph glyph-name="Adieresis" unicode="&#xc4;" horiz-adv-x="1167" 
d="M1089 -459l-4 7c-60 95 -89 271 -105 383c-26 234 -31 486 -32 729c-211 -17 -418 -41 -619 -73c-74 -250 -139 -499 -190 -742l-7 -33c-10 -45 -19 -93 -30 -135c0 -15 -20 -110 -34 -129c-22 2 -23 40 -23 73c0 82 12 145 28 230c51 242 115 484 185 724l-176 -31
c-16 -3 -57 -9 -90 -9c-21 0 -38 2 -47 10c16 23 99 44 124 49c68 13 137 25 206 36c91 310 191 614 321 901c54 113 161 333 272 333c105 0 122 -216 128 -340l2 -41c6 -116 2 -235 5 -345c0 -35 -1 -70 -1 -105l-1 -328c34 0 70 3 107 3c48 0 89 -2 89 -13
c1 -19 -125 -28 -197 -32v-107c0 -167 2 -338 12 -503c0 -109 16 -354 91 -499h-1l36 -58l-6 -5c-12 8 -34 36 -43 50zM871 1815h-1c-2 2 -3 2 -3 2c-1 0 -2 -1 -3 -1h-3c-172 -74 -459 -979 -517 -1176c195 29 406 53 603 63v267c0 170 -1 340 -9 510
c-4 80 -11 170 -28 250c-5 25 -18 67 -39 85zM917 2118c0 28 20 51 42 55h7c19 0 33 -15 33 -38c0 -28 -20 -53 -43 -57h-6c-19 0 -33 17 -33 40zM836 2078h-5c-19 0 -33 17 -33 40c0 27 22 52 41 55h7c18 0 32 -14 32 -36c0 -28 -19 -55 -42 -59z" />
    <glyph glyph-name="Aring" unicode="&#xc5;" horiz-adv-x="1167" 
d="M1089 -459l-4 7c-60 95 -89 271 -105 383c-26 234 -31 486 -32 729c-211 -17 -418 -41 -619 -73c-74 -250 -139 -499 -190 -742l-7 -33c-10 -45 -19 -93 -30 -135c0 -15 -20 -110 -34 -129c-22 2 -23 40 -23 73c0 82 12 145 28 230c51 242 115 484 185 724l-176 -31
c-16 -3 -57 -9 -90 -9c-21 0 -38 2 -47 10c16 23 99 44 124 49c68 13 137 25 206 36c91 310 191 614 321 901c54 113 161 333 272 333c105 0 122 -216 128 -340l2 -41c6 -116 2 -235 5 -345c0 -35 -1 -70 -1 -105l-1 -328c34 0 70 3 107 3c48 0 89 -2 89 -13
c1 -19 -125 -28 -197 -32v-107c0 -167 2 -338 12 -503c0 -109 16 -354 91 -499h-1l36 -58l-6 -5c-12 8 -34 36 -43 50zM871 1815h-1c-2 2 -3 2 -3 2c-1 0 -2 -1 -3 -1h-3c-172 -74 -459 -979 -517 -1176c195 29 406 53 603 63v267c0 170 -1 340 -9 510
c-4 80 -11 170 -28 250c-5 25 -18 67 -39 85zM825 2173c2 56 48 113 98 113c37 0 65 -34 65 -80c0 -63 -46 -115 -96 -115c-39 0 -67 34 -67 82zM906 2259l3 -10c-25 -4 -50 -36 -50 -68c0 -31 18 -55 41 -55c28 0 56 37 56 74c0 28 -18 50 -41 50h-6z" />
    <glyph glyph-name="space" unicode=" " horiz-adv-x="362" 
 />
    <glyph glyph-name="l.002" unicode="&#xe074;" horiz-adv-x="266" 
d="M313 1768l10 -5c-3 -6 -4 -7 -5 -8l-3 -4v1l-19 -23v1c-157 -290 -214 -1148 -214 -1665c0 -103 3 -193 7 -261c7 -128 20 -273 64 -397c7 -19 23 -51 25 -57l2 1l7 -8c-2 -2 -4 -4 -9 -4c-14 0 -46 53 -46 53c-50 97 -74 288 -85 406c-11 117 -14 223 -14 353
c0 524 79 1624 267 1629c11 -1 23 -4 23 -16z" />
    <glyph glyph-name="B" unicode="B" horiz-adv-x="1253" 
d="M318 1812h9c38 0 53 -77 53 -119v-37c74 27 144 38 225 39c147 -4 322 -60 322 -330c-19 -232 -175 -410 -323 -531l3 -8c36 7 68 11 100 11c282 0 392 -244 403 -438c0 -109 -16 -193 -55 -295c-209 -498 -739 -638 -1155 -638h-38c5 15 117 25 188 34l49 6l43 109v-1
c81 288 109 690 130 1003c-24 -12 -43 -17 -61 -17c0 19 27 44 64 74c20 297 33 600 44 898c-104 -60 -214 -170 -273 -285c-5 -21 -52 -120 -71 -129c-9 8 -10 17 -10 32c0 42 22 104 29 118c68 146 196 258 326 322v32c0 16 0 33 2 47v-1c1 8 1 15 1 22v10l-2 59
c0 4 -3 13 -3 13zM426 709l-8 -5h1c-31 -20 -63 -40 -92 -57c-21 -304 -69 -912 -210 -1140c147 23 266 55 396 113c258 120 542 380 542 761c0 264 -164 406 -351 406c-91 0 -197 -39 -278 -78zM332 722l7 -4c44 29 91 51 141 71l-1 -1c175 117 396 335 396 602
c0 214 -162 254 -273 256c-84 -1 -152 -14 -225 -45c-10 -293 -25 -587 -45 -879z" />
    <glyph glyph-name="C" unicode="C" horiz-adv-x="1088" 
d="M1081 1523c1 -19 2 -37 2 -56c0 -39 -38 -223 -86 -242l3 5c0 -4 25 204 25 233c0 161 -66 270 -185 270c-60 0 -114 -15 -167 -40c-415 -221 -651 -1023 -651 -1518c0 -142 18 -282 69 -419c68 -138 173 -221 300 -221c303 0 543 352 543 721c0 34 -3 69 -9 104
c-4 19 -32 104 -36 106l2 8c21 -2 52 -101 54 -109c12 -45 16 -83 16 -129c0 -390 -255 -741 -577 -741c-152 0 -264 75 -341 244c-57 141 -73 284 -73 435c0 365 92 744 256 1083c134 251 340 503 601 526h13c134 0 226 -98 241 -260z" />
    <glyph glyph-name="D" unicode="D" horiz-adv-x="1343" 
d="M322 1852v4l1 -2c-2 4 -2 7 -2 8l1 15c52 -16 58 -84 58 -132c0 -1 -2 -2 -2 -6v-34c66 17 130 25 191 25c419 0 672 -428 672 -894c0 -39 -1 -78 -5 -119c-82 -763 -620 -1151 -1215 -1180c-17 0 -99 -7 -153 -7h-21c6 17 101 24 151 27c31 4 68 2 100 7l42 107v-1
c22 84 39 161 51 234c86 542 108 1173 127 1730c-96 -43 -188 -116 -250 -203l-44 -79h1l-72 -136c-7 11 -11 22 -12 27c0 59 61 183 80 213c78 106 185 194 299 233v51c0 26 3 55 3 83c-1 8 -1 19 -1 29zM1184 716v1c2 40 4 79 4 116c0 426 -217 846 -622 846
c-62 0 -126 -8 -189 -26c-17 -482 -38 -968 -98 -1442l-4 -35c-23 -182 -56 -453 -154 -608c533 73 981 467 1063 1148z" />
    <glyph glyph-name="E" unicode="E" horiz-adv-x="1008" 
d="M806 -225c-92 -113 -260 -275 -403 -275c-148 0 -197 202 -215 353l-3 46c-3 42 -5 92 -5 135c0 157 15 318 35 482c-97 -21 -216 -44 -266 -48l-2 8c41 20 173 56 273 81c36 284 92 602 157 864c9 35 17 82 42 133c-66 -16 -150 -35 -217 -48c-11 -2 -25 -4 -36 -4
c-9 0 -53 5 -53 17c11 18 63 34 83 38c212 39 427 95 639 137c134 26 275 53 407 53c9 0 19 0 25 -1c41 -1 144 -8 149 -64c-2 -23 -17 -38 -22 -38l1 8c1 2 1 5 1 8c0 2 -1 3 -1 6v1c-6 43 -73 46 -111 46c-135 0 -306 -36 -441 -64c-99 -20 -202 -43 -300 -66l-80 -19
c-1 -24 -11 -52 -11 -68l-16 -81c-66 -265 -120 -563 -159 -844c186 43 369 70 549 77c17 0 27 -9 28 -25c-4 -13 -15 -26 -31 -27c-180 -8 -374 -30 -551 -67c-22 -168 -38 -335 -38 -501c0 -55 0 -111 6 -166c10 -108 41 -303 152 -322c138 3 286 133 390 247l145 186
c0 -41 -113 -189 -121 -198z" />
    <glyph glyph-name="F" unicode="F" horiz-adv-x="721" 
d="M254 614l3 4c8 254 9 515 10 771c0 27 -2 62 -2 86c-119 -11 -228 -55 -335 -55c-8 0 -60 4 -60 16c11 23 74 35 97 39l145 26l142 28c141 28 300 59 442 83c166 28 328 52 497 52c38 0 171 -6 171 -68c0 -13 -10 -31 -25 -41v19c0 1 1 3 1 4c0 52 -84 52 -128 52
c-75 0 -153 -9 -226 -19c-225 -31 -458 -78 -679 -123c12 -32 17 -60 17 -88c0 -258 -3 -517 -12 -772c49 12 105 19 152 29l28 6c40 8 111 24 157 24c24 0 42 -3 42 -14c0 -14 -99 -33 -169 -47l-46 -9c-54 -11 -114 -23 -166 -36c-12 -311 -38 -804 -131 -1068
c-12 -12 -40 -100 -87 -119c17 23 52 108 58 125c74 294 94 737 104 1048c-66 -19 -131 -40 -195 -66c-3 -1 -8 -2 -11 -2c-13 0 -28 11 -28 27c0 31 171 73 234 88z" />
    <glyph glyph-name="G" unicode="G" horiz-adv-x="1146" 
d="M557 276h-4c-14 0 -26 8 -26 21c0 12 13 23 26 26c127 14 274 65 390 122h-1l29 19c38 25 105 60 130 69c-1 -29 -95 -94 -127 -112l-28 -16c15 -51 18 -95 18 -144c-7 -316 -172 -640 -410 -742c-55 -20 -123 -28 -181 -29c-140 10 -244 87 -315 244
c-60 144 -73 292 -73 445v44c0 15 0 29 1 44c25 328 106 680 254 984c134 254 335 508 603 526c79 0 143 -16 198 -93c38 -66 57 -128 57 -207v-15c0 -39 -42 -230 -99 -246c6 26 40 207 40 240c0 151 -67 272 -183 272c-55 0 -119 -16 -167 -41
c-417 -218 -653 -1023 -653 -1516c0 -144 15 -281 72 -420c59 -137 152 -209 270 -221c51 1 113 8 160 24c227 94 379 410 397 704c0 39 -2 99 -9 138c-136 -67 -259 -108 -369 -120z" />
    <glyph glyph-name="H" unicode="H" horiz-adv-x="1255" 
d="M963 -155c5 229 20 463 40 690l-76 -12c-355 -56 -432 -73 -663 -123c-15 -215 -34 -435 -59 -647v1c-8 -81 -20 -169 -36 -254c0 -5 -2 -13 -2 -18l-2 -13c-4 -28 -20 -74 -34 -81l-6 9c4 3 7 21 7 25c11 109 21 222 29 331l46 633c-72 -17 -159 -39 -227 -60
c-5 -1 -16 -3 -25 -3c-20 0 -46 9 -46 23c0 23 176 59 274 82l26 6c20 378 54 800 62 1193c2 19 6 48 33 51c25 -2 30 -26 30 -45c0 -325 -34 -663 -52 -992l-16 -195c241 49 496 90 739 119c27 316 70 742 162 1027c10 32 26 64 45 89c7 9 36 41 65 41l-14 -41l-33 -97
c-83 -273 -136 -727 -165 -1012l123 11c8 0 14 -2 14 -2c0 -4 -45 -24 -139 -36c-22 -224 -41 -472 -54 -698c0 -27 -9 -352 -21 -373c-24 12 -30 117 -30 207c0 68 3 132 5 155v9z" />
    <glyph glyph-name="I" unicode="I" horiz-adv-x="668" 
d="M328 -402l93 16c28 0 210 29 296 29c13 0 19 0 34 -2c-2 -24 -183 -40 -274 -56l-45 -8c-139 -25 -287 -60 -416 -106c-4 -3 -7 -3 -12 -3c-10 0 -27 8 -27 23c0 9 8 17 16 22c93 33 203 61 313 81c4 52 11 111 15 164l5 46c3 31 6 61 8 92l21 274c7 107 16 222 23 333
l7 87c18 336 50 707 55 1049c0 2 -1 3 -1 6s2 12 4 19c-126 -25 -244 -54 -361 -97c-3 -1 -6 -2 -11 -2c-12 0 -27 10 -27 25c0 7 7 15 13 19c130 47 293 80 430 102c27 4 211 30 297 30c10 0 21 0 34 -2c-3 -25 -201 -46 -293 -60l-26 -4c4 -14 5 -22 5 -32
c-2 -245 -21 -497 -39 -746l-22 -306c-17 -229 -38 -467 -65 -694c0 -4 -2 -8 -2 -12c-9 -73 -18 -147 -34 -223c0 -3 -2 -8 -2 -11z" />
    <glyph glyph-name="J" unicode="J" horiz-adv-x="1091" 
d="M900 1573h5c7 -5 11 -19 18 -39v-2c163 35 323 64 485 64c37 0 149 -8 150 -72l-3 -6c-2 -10 -3 -25 -13 -25c-6 0 -6 2 -6 10v12c0 43 -58 48 -98 48c-162 0 -340 -39 -510 -76c3 -25 4 -46 4 -61v-94c0 -644 -57 -1868 -614 -1968h-9c-12 -1 -26 -2 -36 -2
c-86 0 -172 38 -235 118c-74 107 -99 226 -99 357c0 190 41 393 163 514l10 -5l-5 -11c-95 -143 -128 -307 -128 -469c0 -200 71 -461 294 -461c11 0 27 0 38 2c506 127 564 1325 564 1904c0 25 -2 46 -2 67v61c0 8 -1 14 -1 22c0 4 1 9 1 14l-161 -37
c-65 -15 -137 -32 -197 -45l-35 -8c-56 -13 -121 -33 -174 -33c-9 0 -51 2 -51 17c10 19 62 33 82 37c43 8 85 17 125 26l95 21c105 23 215 48 322 71c3 23 11 44 21 49zM908 1569l-5 -4c5 0 5 4 5 4z" />
    <glyph glyph-name="K" unicode="K" horiz-adv-x="794" 
d="M1178 1577l-41 -13c-259 -97 -634 -534 -824 -779l-120 -178c65 -253 348 -564 550 -658c13 -6 101 -30 129 -30c-18 -10 -33 -14 -45 -14c-244 0 -534 323 -661 585c-24 -283 -68 -698 -162 -932c-3 -8 -56 -113 -100 -126c15 17 30 42 40 66c67 158 98 382 121 569v-1
l3 31c55 488 78 1025 95 1522v5c0 2 1 4 1 6l2 78l-2 29c-1 3 -1 7 -1 10v12c52 0 65 -89 67 -129c-1 -3 -1 -8 -1 -10c-11 -321 -27 -640 -50 -960l4 -1c166 299 731 940 987 963c18 -1 58 -6 60 -22c-7 -9 -18 -12 -30 -16z" />
    <glyph glyph-name="L" unicode="L" horiz-adv-x="498" 
d="M310 1685v-5c0 -27 -6 -60 -11 -86l-3 -10c-3 -15 -5 -29 -9 -44l-7 -27v1c-117 -468 -235 -1123 -235 -1623c0 -122 16 -413 166 -413c124 0 287 154 373 248l24 29l111 145l9 -4c-5 -31 -85 -137 -111 -172v1l-9 -12v1c-94 -113 -259 -275 -404 -275h-15
c-1 0 -4 1 -6 1c-173 36 -186 351 -186 468c0 485 119 1192 225 1612c12 48 51 162 88 179c0 -4 0 -7 1 -8c0 -1 -1 -5 -1 -6z" />
    <glyph glyph-name="M" unicode="M" horiz-adv-x="1790" 
d="M460 801v70c0 184 -10 389 -45 574c-24 99 -72 257 -166 272c-11 0 -26 -3 -37 -6c-198 -101 -265 -757 -269 -993v-44c0 -66 2 -140 23 -195l3 -11l-9 -5c-72 89 -74 266 -74 357c0 111 8 216 25 327c31 209 123 629 321 629c152 0 216 -175 250 -326
c35 -187 45 -367 45 -550c0 -140 -5 -276 -12 -411c1 0 3 -1 4 -1c46 256 191 1001 459 1025c159 -8 166 -292 166 -469c0 -240 -24 -479 -47 -714c1 0 4 -2 5 -2c33 148 67 300 111 449c50 169 167 507 333 516c104 -5 145 -100 145 -263c0 -159 -17 -337 -37 -499
l-13 -106c-17 -157 -38 -350 -38 -505c0 -62 21 -153 21 -178c-5 7 -41 118 -43 179l-2 67c1 172 26 390 38 545c15 149 26 300 31 454c0 107 -8 256 -98 267c-128 -10 -242 -346 -285 -490c-81 -288 -134 -570 -202 -855c-4 -15 -10 -22 -26 -24h-9c-10 2 -20 10 -26 20v8
c29 383 83 757 83 1149c0 83 -6 170 -20 253c-9 50 -33 143 -80 146c-187 -19 -324 -590 -367 -791c-72 -369 -116 -731 -175 -1086c-4 -13 -16 -20 -26 -22h-8c-9 0 -34 12 -34 30c41 407 77 795 85 1209z" />
    <glyph glyph-name="N" unicode="N" horiz-adv-x="1341" 
d="M662 633c-61 -272 -113 -558 -161 -829l-35 -197c-2 -12 -13 -20 -28 -22c-20 0 -36 18 -36 32c41 421 82 826 82 1260c0 185 -11 383 -44 567c-24 99 -71 255 -167 270c-228 -18 -295 -748 -299 -987c0 -54 1 -109 7 -164c0 -13 5 -56 10 -61l12 -36
c-20 8 -26 18 -32 28l-5 8c-53 92 -55 248 -55 317c0 44 2 88 5 132c18 235 106 821 345 821h8c2 0 4 -1 6 -1c133 -18 196 -174 230 -322c42 -220 45 -430 45 -648c-4 -170 -12 -334 -23 -498c1 0 3 -1 4 -1c60 295 241 1212 538 1212c105 0 137 -124 150 -232l4 -44
c2 -18 1 -36 2 -54v-54c0 -121 -10 -242 -18 -362c0 -8 -3 -22 -3 -30l-13 -144c-15 -166 -31 -334 -34 -504c0 -80 10 -129 10 -271c0 -17 -1 -28 -2 -29l2 -9c-19 0 -37 207 -38 231l-3 80c0 169 9 354 23 524l8 95c10 123 19 261 19 393c0 38 0 77 -2 114v6
c-3 38 -12 245 -99 245c-206 0 -362 -634 -413 -836z" />
    <glyph glyph-name="O" unicode="O" horiz-adv-x="1144" 
d="M991 894c1 31 1 61 1 90c0 161 -14 311 -66 474v-1c-77 216 -201 334 -387 343c-111 -3 -217 -31 -288 -137v1l-14 -22c-4 -6 -10 -10 -13 -10c-2 0 -3 1 -4 2c0 8 8 19 12 28v1c1 3 3 7 3 7c73 115 186 155 306 159c206 -2 338 -123 424 -358c58 -179 72 -337 72 -523
c0 -447 -238 -1372 -686 -1386c-156 13 -267 152 -329 333c-47 168 -67 337 -67 495c0 254 70 1037 425 1173c12 3 56 15 85 15c7 0 11 0 21 -3c-4 -13 -18 -14 -33 -20l-18 -7v1l-33 -15h1c-321 -187 -395 -828 -395 -1142c0 -253 66 -755 348 -780
c411 21 619 863 635 1282z" />
    <glyph glyph-name="P" unicode="P" horiz-adv-x="854" 
d="M894 1195c0 503 -446 638 -738 665h-62c-19 0 -93 -7 -145 -7c-21 0 -35 0 -50 4c25 34 160 53 195 55c6 1 15 1 23 1c13 0 31 -1 46 -2c272 -20 622 -116 749 -467c24 -78 36 -143 36 -219v-14c0 -5 -1 -10 -1 -15c-28 -373 -286 -660 -585 -683c-54 1 -118 7 -175 24
c-14 -239 -35 -486 -60 -723c-9 -82 -19 -168 -35 -253l-7 -38c-6 -31 -18 -62 -31 -69c-1 3 -1 6 -1 9c0 9 1 21 3 34l7 63c2 30 4 62 7 92l41 596c5 102 15 208 19 309c-53 25 -182 89 -205 119l6 6l201 -93l9 153c18 305 32 640 38 942c0 15 5 54 32 54s32 -26 32 -45
c-2 -290 -18 -591 -38 -886l-7 -103l-9 -135c51 -14 94 -21 142 -21c296 0 542 279 563 647z" />
    <glyph glyph-name="Q" unicode="Q" horiz-adv-x="1140" 
d="M608 -270l-5 1c-68 -53 -151 -81 -234 -83c-153 14 -264 114 -336 284c-58 158 -78 309 -78 471c0 272 70 625 234 834v18c0 296 140 569 397 577c182 -13 328 -164 402 -374c49 -150 66 -288 66 -438c0 -406 -118 -975 -407 -1253c59 -97 145 -168 233 -209v1l51 -15
c30 -9 71 -19 91 -21c-22 -10 -29 -10 -41 -10c-43 0 -112 16 -123 20c-95 34 -187 104 -250 197zM395 1327c-43 -21 -87 -43 -101 -56l-9 -7c-27 -24 -68 -62 -68 -86c0 -64 49 -187 49 -209c0 -3 0 -6 -1 -8c-25 0 -59 128 -70 197c-138 -214 -186 -505 -186 -754
c0 -276 88 -707 369 -707c73 0 142 28 203 77c-61 119 -86 219 -86 336c0 31 2 80 38 89c17 -4 21 -28 21 -44c0 -21 -2 -40 -2 -57c0 -103 17 -180 71 -287c269 277 382 833 382 1209c0 309 -116 751 -423 776c-228 -6 -350 -254 -364 -531l4 5c13 14 27 26 40 36
c24 18 126 68 180 68c9 0 20 -2 30 -6c-15 -11 -40 -24 -64 -35z" />
    <glyph glyph-name="R" unicode="R" horiz-adv-x="875" 
d="M50 -567l-9 -13v6h-11l11 4c0 34 5 47 7 68l4 40c-1 18 2 44 4 61l3 37c10 121 15 241 26 360l34 539c-56 26 -206 103 -209 136c25 -15 145 -76 211 -103l12 230c14 280 31 594 34 864c0 14 6 54 33 54c24 0 31 -32 32 -51c-2 -257 -19 -531 -35 -796l-20 -322
c51 -13 96 -21 143 -21c298 0 563 297 563 679c0 67 -12 129 -36 202v-1c-121 326 -449 414 -702 432h-64c-15 0 -92 -7 -144 -7c-21 0 -36 0 -49 4c25 33 162 53 194 55c7 1 16 1 24 1c12 0 31 -1 45 -2c320 -29 785 -175 785 -715c-30 -375 -287 -660 -586 -683
c-41 1 -92 3 -144 16c2 -5 2 -9 4 -14l3 -11c75 -245 390 -574 576 -651h-1l34 -10l94 -22c-17 -6 -34 -10 -47 -10c-252 0 -575 338 -701 616c-14 -198 -32 -418 -52 -613c-8 -82 -18 -168 -35 -253c-3 -13 -15 -75 -31 -106z" />
    <glyph glyph-name="S" unicode="S" horiz-adv-x="947" 
d="M649 1804c-195 0 -536 -136 -536 -425c0 -104 35 -181 91 -274v1c146 -223 367 -404 491 -645c51 9 107 29 151 29c4 0 20 -5 20 -12c0 -2 -122 -28 -161 -34c38 -79 56 -157 56 -244c0 -156 -31 -307 -120 -451c-114 -161 -296 -270 -476 -270c-89 2 -193 35 -255 133
c-23 46 -27 84 -27 145c42 401 466 623 754 692c-72 131 -172 247 -270 359c-148 168 -316 363 -316 570c0 2 1 4 1 6v4c24 321 407 461 599 461c109 0 265 -43 270 -218c-2 -19 -12 -108 -43 -133l-5 56c-1 15 -1 32 -1 45l-2 30c-24 143 -124 175 -221 175zM648 430l-1 2
c-277 -75 -702 -318 -713 -716c11 -109 98 -191 233 -200c50 1 99 9 145 26c247 89 391 322 391 647c0 94 -19 168 -56 241h1z" />
    <glyph glyph-name="T" unicode="T" horiz-adv-x="674" 
d="M521 1774h1c20 -3 22 -23 22 -43v-9c215 35 448 71 643 71c49 0 207 -6 224 -64c0 -17 -11 -38 -24 -43l-5 9h1c0 1 -1 2 -1 6v4c0 1 1 3 1 5c0 46 -82 48 -132 48c-87 0 -178 -9 -268 -19c-147 -17 -296 -40 -442 -65c-31 -251 -50 -514 -66 -770l-18 -282
c-9 -146 -21 -293 -29 -440l-28 -360v-138l-6 -200c0 -2 1 -5 1 -8c0 -13 -6 -13 -10 -13c-14 5 -17 76 -19 110c-2 48 -4 103 -4 152c0 299 17 601 36 898l10 154c13 295 35 597 67 885l-196 -34c-62 -13 -158 -29 -215 -39l-88 -15c-59 -10 -129 -25 -183 -26
c-6 0 -67 6 -67 13c20 39 199 54 273 68l483 82c0 2 -1 4 -1 7c0 33 18 55 40 56z" />
    <glyph glyph-name="U" unicode="U" horiz-adv-x="989" 
d="M942 1582c-56 -373 -105 -708 -133 -1094c-5 -69 -8 -139 -8 -209c0 -57 1 -114 5 -171l3 -40c12 -160 57 -396 204 -445c18 0 75 -7 86 -7l2 -8c-16 -8 -52 -8 -76 -8c-3 0 -7 1 -11 1h-12c-247 53 -255 508 -255 672c0 263 24 502 55 734c-1 0 -3 2 -4 2
c-24 -112 -46 -219 -69 -298c-89 -309 -293 -896 -584 -914c-174 10 -182 299 -182 454c0 131 11 266 24 395c18 182 152 1139 234 1172c5 -8 7 -28 7 -35c0 -47 -15 -125 -20 -154l-2 -10c-64 -324 -122 -642 -160 -974v1c-14 -131 -25 -262 -25 -393c0 -39 1 -77 3 -116
c1 -28 13 -280 124 -290c249 18 457 619 535 871c7 40 108 440 174 693l22 175c2 19 12 60 37 60c23 0 27 -27 27 -43c0 -8 0 -15 -1 -21z" />
    <glyph glyph-name="V" unicode="V" horiz-adv-x="850" 
d="M953 1695c-29 -460 -459 -2214 -691 -2214c-98 8 -145 230 -167 335c-43 223 -60 629 -81 839l-13 127c-26 257 -54 512 -108 767l-2 8c-4 14 -19 58 -21 58l-21 19c86 0 127 -205 141 -293c24 -151 39 -314 56 -468l23 -212c22 -205 36 -599 78 -834
c15 -68 65 -288 121 -299c3 0 5 1 8 3c111 65 276 645 353 908l28 96c111 372 216 768 274 1160c0 29 7 57 8 86c0 4 -1 10 -1 14c0 2 1 8 4 14h8c9 -25 5 -37 5 -53c0 -20 -1 -40 -2 -61z" />
    <glyph glyph-name="W" unicode="W" horiz-adv-x="1379" 
d="M865 -333c-85 0 -122 129 -138 220c-31 203 -32 408 -32 604v73c0 24 1 49 1 74l1 172c0 61 -2 116 -5 178v2c-23 -56 -39 -103 -52 -146l-89 -296c-69 -231 -144 -493 -250 -761c-39 -98 -106 -263 -190 -263c-90 0 -114 198 -125 297c-17 147 -20 303 -20 467
c0 258 15 556 48 824c12 81 59 386 126 409c0 -8 -10 -75 -21 -147l-42 -269c-30 -256 -49 -560 -49 -818c0 -153 1 -308 18 -461c5 -42 27 -217 66 -247c50 37 111 174 132 226c57 145 108 297 155 450l70 229c38 131 79 263 121 392c25 78 63 206 113 206
c45 0 54 -90 54 -182c0 -60 -3 -121 -3 -158l-3 -397l3 -70c3 -127 5 -255 26 -379c8 -45 35 -181 82 -181c147 0 339 841 385 1052c65 299 142 684 160 993c0 5 1 13 1 18v16c0 6 -1 11 -1 17v19l11 1c7 -27 8 -55 8 -82v-34c0 -61 -7 -123 -12 -184c0 -7 -3 -15 -3 -22
c-53 -509 -310 -1833 -546 -1842z" />
    <glyph glyph-name="X" unicode="X" horiz-adv-x="747" 
d="M540 169c62 -199 162 -500 317 -588l-4 -8c-27 4 -70 33 -75 37c-204 156 -353 727 -438 1051c-132 -248 -306 -598 -376 -884c0 -7 -3 -17 -3 -24l-4 -47c-2 -27 -5 -58 -5 -64c-20 2 -26 44 -26 81c0 280 261 782 394 1026l-36 137c-73 266 -133 562 -255 817l1 -1
l-27 42c6 5 9 5 15 5c97 0 151 -185 189 -309l8 -26c54 -188 104 -390 149 -581c140 251 319 530 493 736c14 17 63 66 93 66c4 0 10 0 13 -3v1c3 -3 4 -6 4 -11c0 -21 -36 -65 -52 -83l-1 -2v1c-197 -231 -377 -521 -528 -795c45 -187 98 -391 154 -574z" />
    <glyph glyph-name="Y" unicode="Y" horiz-adv-x="1038" 
d="M901 1484l-4 2l-64 -144c-59 -140 -125 -291 -196 -433c-107 -204 -292 -510 -514 -520c-136 6 -169 182 -169 350c0 176 32 391 79 564c9 33 58 186 98 216l8 -5l-25 -97c-57 -222 -102 -461 -101 -696c0 -66 17 -268 115 -280c183 10 364 314 453 486
c129 250 223 503 334 741c6 12 20 18 30 18c14 0 30 -6 30 -26c-40 -386 -68 -766 -109 -1152l132 17v-21l-134 -21c-61 -483 -216 -1195 -687 -1210c-118 5 -258 78 -258 274c0 8 0 18 1 27v-1c8 91 38 173 76 250c178 320 499 586 813 673l26 236v-1c26 251 43 502 66 753
zM-33 -425v-1c-1 -9 -1 -36 -1 -45c17 -151 116 -211 214 -215c426 18 570 718 626 1155c-247 -80 -424 -213 -593 -393c-102 -121 -230 -320 -246 -501z" />
    <glyph glyph-name="Z" unicode="Z" horiz-adv-x="890" 
d="M858 1269c-106 -214 -246 -439 -386 -666c-66 -106 -132 -212 -199 -317v1c-71 -111 -141 -223 -210 -335c-41 -66 -85 -144 -126 -229c-11 -22 -32 -71 -35 -96c0 -18 9 -21 24 -21c43 0 98 28 137 49c266 141 632 435 840 670c4 2 17 22 32 40l17 21v-1l5 7l10 -4
c-96 -203 -756 -756 -1017 -819c-9 0 -19 -3 -30 -3c-19 0 -73 11 -73 57c2 36 22 79 36 108c81 165 201 356 312 532v-1l222 354c126 204 265 435 379 663c36 72 105 224 105 314c0 67 -52 73 -87 73c-162 0 -387 -148 -529 -276v1l-190 -200c-4 6 -7 13 -7 16
c0 49 120 183 147 211c141 129 406 297 587 297c65 0 143 -31 143 -116c0 -104 -70 -252 -107 -330z" />
    <glyph glyph-name="A" unicode="A" horiz-adv-x="1215" 
d="M1089 -459l-4 7c-60 95 -89 271 -105 383c-26 234 -31 486 -32 729c-211 -17 -418 -41 -619 -73c-74 -250 -139 -499 -190 -742l-7 -33c-10 -45 -19 -93 -30 -135c0 -15 -20 -110 -34 -129c-22 2 -23 40 -23 73c0 82 12 145 28 230c51 242 115 484 185 724l-176 -31
c-16 -3 -57 -9 -90 -9c-21 0 -38 2 -47 10c16 23 99 44 124 49c68 13 137 25 206 36c91 310 191 614 321 901c54 113 161 333 272 333c105 0 122 -216 128 -340l2 -41c6 -116 2 -235 5 -345c0 -35 -1 -70 -1 -105l-1 -328c34 0 70 3 107 3c48 0 89 -2 89 -13
c1 -19 -125 -28 -197 -32v-107c0 -167 2 -338 12 -503c0 -109 16 -354 91 -499h-1l36 -58l-6 -5c-12 8 -34 36 -43 50zM871 1815h-1c-2 2 -3 2 -3 2c-1 0 -2 -1 -3 -1h-3c-172 -74 -459 -979 -517 -1176c195 29 406 53 603 63v267c0 170 -1 340 -9 510
c-4 80 -11 170 -28 250c-5 25 -18 67 -39 85z" />
    <glyph glyph-name="AE" unicode="&#xc6;" horiz-adv-x="1987" 
d="M1052 -459l-4 7c-60 95 -89 271 -105 383c-26 234 -31 486 -32 729c-211 -17 -418 -41 -619 -73c-74 -250 -139 -499 -190 -742l-7 -33c-10 -45 -19 -93 -30 -135c0 -15 -20 -110 -34 -129c-22 2 -23 40 -23 73c0 82 12 145 28 230c51 242 115 484 185 724l-176 -31
c-16 -3 -57 -9 -90 -9c-21 0 -38 2 -47 10c16 23 99 44 124 49c68 13 137 25 206 36c91 310 191 614 321 901c54 113 161 333 272 333c105 0 122 -216 128 -340l2 -41c4 -94 4 -207 5 -314c0 -181 -3 -363 -3 -501v-112c0 -167 2 -338 12 -503c0 -109 16 -354 91 -499h-1
l36 -58l-6 -5c-12 8 -34 36 -43 50zM834 1815h-1c-2 2 -3 2 -3 2c-1 0 -2 -1 -3 -1h-3c-172 -74 -459 -979 -517 -1176c195 29 406 53 603 63v267c0 170 -1 340 -9 510c-4 80 -11 170 -28 250c-5 25 -18 67 -39 85zM1682 -225c-92 -113 -261 -275 -404 -275
c-165 0 -222 231 -222 543c0 504 150 1221 242 1511c-43 -11 -63 -14 -96 -20l-42 -8c-11 -2 -26 -4 -36 -4c-9 0 -53 5 -53 17c11 18 63 34 83 38c212 38 342 74 557 117c133 27 275 53 406 53c9 0 19 0 26 -1c40 -1 144 -8 148 -64c-2 -23 -16 -38 -22 -38l1 8
c1 2 1 5 1 8c0 50 -72 53 -112 53c-134 0 -305 -36 -441 -64c-99 -20 -201 -43 -299 -66l-80 -19c-1 -25 -11 -52 -11 -68l-17 -81c-66 -265 -120 -563 -158 -844c186 43 368 70 549 77c16 0 26 -9 27 -25c-3 -13 -14 -26 -31 -27c-179 -8 -374 -30 -551 -67
c-22 -168 -37 -335 -37 -501c0 -55 0 -111 5 -166c10 -108 42 -303 152 -322c139 3 286 133 391 247l145 186c0 -41 -113 -189 -121 -198z" />
    <glyph glyph-name="OE" unicode="&#x152;" horiz-adv-x="1884" 
d="M991 894c1 31 1 61 1 90c0 161 -14 311 -66 474v-1c-77 216 -201 334 -387 343c-111 -3 -217 -31 -288 -137v1l-14 -22c-4 -6 -10 -10 -13 -10c-2 0 -3 1 -4 2c0 8 8 19 12 28v1c1 3 3 7 3 7c73 115 186 155 306 159c206 -2 338 -123 424 -358c58 -179 72 -337 72 -523
c0 -447 -238 -1372 -686 -1386c-156 13 -267 152 -329 333c-47 168 -67 337 -67 495c0 254 70 1037 425 1173c12 3 56 15 85 15c7 0 11 0 21 -3c-4 -13 -18 -14 -33 -20l-18 -7v1l-33 -15h1c-321 -187 -395 -828 -395 -1142c0 -253 66 -755 348 -780
c411 21 619 863 635 1282zM1663 -225c-92 -113 -261 -275 -404 -275c-147 0 -196 202 -214 353l-3 46c-3 42 -6 92 -5 135c0 160 16 323 35 490v-1c44 421 123 741 207 1031c-67 -17 -150 -34 -220 -48c-11 -2 -25 -4 -36 -4c-9 0 -53 5 -53 17c11 18 63 34 83 38
c212 39 427 95 639 137c134 26 275 53 407 53c9 0 18 0 25 -1c41 -1 144 -8 149 -64c-3 -23 -17 -38 -22 -38l1 8c1 2 1 5 1 8c0 50 -73 53 -112 53c-135 0 -306 -36 -441 -64c-99 -20 -202 -43 -300 -66l-80 -19c-2 -23 -7 -55 -20 -113l-8 -36
c-66 -265 -119 -563 -158 -844c186 43 369 70 549 77c17 0 26 -9 28 -25c-4 -13 -15 -26 -31 -27c-180 -8 -374 -30 -551 -67c-22 -168 -38 -335 -38 -501c0 -55 0 -111 6 -166c10 -108 40 -303 151 -322c139 3 287 133 391 247l145 186c0 -41 -113 -189 -121 -198z" />
    <glyph glyph-name="a" unicode="a" horiz-adv-x="461" 
d="M375 562c1 -5 1 -10 1 -14v-6c-23 -124 -41 -271 -41 -398c0 -23 2 -47 3 -79c2 -38 5 -89 31 -112l16 -10l-1 -19c-70 16 -78 162 -78 252c0 80 7 173 17 262h-2c-1 0 -1 0 -2 1c-64 -121 -109 -227 -205 -365l-1 -2v1c-17 -27 -44 -67 -75 -69c-46 0 -59 59 -59 106
c0 133 101 450 209 450c21 0 68 -25 68 -73v-9c-7 0 -19 4 -25 8l-10 5c-5 2 -12 3 -17 3c-94 -11 -183 -285 -183 -392c0 -31 12 -32 12 -32c24 -1 99 127 132 185l4 7v-1l8 13c57 98 106 209 165 301v-1c1 3 7 8 11 9c11 -2 21 -10 22 -21z" />
    </font>
</defs>
</svg>
